Гена-Бетон / Псевдоним для героя (Роман Качанов (младший)) [2014, комедия, криминальный фильм, экранизация, WEB-DLRip]

Ответить на тему
 
Автор Сообщение

user ®

Стаж: 7 лет 7 месяцев

Сообщений: 20008

Пост Пост: #1 от 30-Авг-2015 00:18

[Цитировать]

Гена-Бетон / Псевдоним для героя
Жанр: комедия, криминальный фильм, экранизация
Год выпуска: 2014
Продолжительность: 01:25:41
Режиссёр: Роман Качанов (младший)
В ролях: Гоша Куценко, Сергей Перегудов, Ольга Арнтгольц, Алика Смехова, Рената Литвинова, Фёдор Бондарчук, Иван Охлобыстин, Роман Качанов (младший), Ангелина Чернова, Рудольф Фурманов, Андрей Васильев, Артемий Троицкий, Олеся (Ольга) Поташинская, Сергей Шнуров, Александр Семчев, Алексей Панин, Константин Мурзенко, Михаил Владимиров, Маша Малиновская, Анна Самохина, Александр Тютрюмов, Андрей Федорцов, Константин Юшкевич, Андрей Терентьев, Андрей Кивинов, Ян Александрович-Краско, Геннадий Смирнов, Сергей Габриэлян, Екатерина Новикова, Артур Ваха, Анна Лутцева, Андрей Перович, Вадим Романов
Описание: Экранизация повести Андрея Кивинова "Псевдоним для героя" ("Маслины для пахана").
Журналист попадает в тяжелейшую криминальную ситуацию. Кто-то бы взялся за обрез, а он берется за авторучку и виртуозно выходит из положения, попутно перевернув всю жизнь города...
Доп. информация:
Сэмпл: http://multi-up.com/1064347
Качество видео: WEB-Rip
Формат видео: AVI
Видео: XVID, 720x384, 1,85:1, 30,000 кадров/сек, 2080 Кбит/сек
Аудио: русский, MP3, 44,1 КГц, 192 Кбит/сек, 2 канала
MediaInfo
Формат : AVI
Формат/Информация : Audio Video Interleave
Размер файла : 1,37 Гбайт
Продолжительность : 1 ч. 25 м.
Общий поток : 2283 Кбит/сек
Программа кодирования : VirtualDubMod 1.5.10.2 (build 2540/release)
Библиотека кодирования : VirtualDubMod build 2540/release
Видео
Идентификатор : 0
Формат : MPEG-4 Visual
Профиль формата : Advanced Simple@L5
Параметр BVOP формата : 2
Параметр QPel формата : Нет
Параметр GMC формата : Без точки перехода
Параметр матрицы формата : Выборочная
Идентификатор кодека : XVID
Идентификатор кодека/Подсказка : XviD
Продолжительность : 1 ч. 25 м.
Битрейт : 2080 Кбит/сек
Ширина : 720 пикселей
Высота : 384 пикселя
Соотношение сторон : 1,85:1
Частота кадров : 30,000 кадров/сек
Цветовое пространство : YUV
Субдискретизация насыщенности : 4:2:0
Битовая глубина : 8 бит
Тип развёртки : Прогрессивная
Метод сжатия : С потерями
Бит/(Пиксели*Кадры) : 0.251
Размер потока : 1,24 Гбайт (91%)
Библиотека кодирования : XviD 1.2.1 (UTC 2008-12-04)
Аудио
Идентификатор : 1
Формат : MPEG Audio
Версия формата : Version 1
Профиль формата : Layer 3
Идентификатор кодека : 55
Идентификатор кодека/Подсказка : MP3
Продолжительность : 1 ч. 25 м.
Вид битрейта : Постоянный
Битрейт : 192 Кбит/сек
Каналы : 2 канала
Частота : 44,1 КГц
Метод сжатия : С потерями
Размер потока : 118 Мбайт (8%)
Выравнивание : Разделение по промежуткам
Продолжительность промежутка : 33 мс. (1,00 видеокадр)
Время предзагрузки промежутка : 500 мс.
Скриншот c названием фильма Скриншоты
Скачать

Скачать торрент!

Как скачивать? · Что такое торрент? · Рейтинг и ограничения

Сайт не распространяет и не хранит электронные версии произведений, а лишь предоставляет доступ к создаваемому пользователями каталогу ссылок на торрент-файлы, которые содержат только списки хеш-сумм

[Профиль] [ЛС]
Показать сообщения:    
Ответить на тему

Текущее время: Сегодня 04:20

Часовой пояс: GMT + 4



Вы не можете начинать темы
Вы не можете отвечать на сообщения
Вы не можете редактировать свои сообщения
Вы не можете удалять свои сообщения
Вы не можете голосовать в опросах
Вы не можете прикреплять файлы к сообщениям
Вы не можете скачивать файлы