Этот неловкий момент / Un moment d\'égarement (Жан-Франсуа Рише / Jean-François Richet) [2015, Франция, комедия, WEBRip] Dub (Line)

Ответить на тему
 
Автор Сообщение

user ®

Стаж: 7 лет 7 месяцев

Сообщений: 20008

Пост Пост: #1 от 30-Авг-2015 00:18

[Цитировать]

Этот неловкий момент / Un moment d'égarement
Страна: Франция
Жанр: комедия
Год выпуска: 2015
Продолжительность: 01:40:54
Перевод: Профессиональный (дублированный) Line
Cубтитры: нет
Режиссер: Жан-Франсуа Рише / Jean-François Richet
В ролях: Венсан Кассель, Франсуа Клюзе, Алис Исааз, Лола Ле Ланн, Филипп Наон
Описание: Два закадычных друга со своими дочерьми проводят отпуск на Ривьере, где на солнечных пляжах 42-летнему отцу семейства не устоять перед чарами соблазнительной 18-летней красотки и предстоит по уши влюбиться. Все бы ничего, да только прелестная девушка является дочерью лучшего друга — строгого отца, грозящего пристрелить любого, кто подойдет ближе, чем на шаг, к обожаемой малышке.
Сэмпл: http://multi-up.com/1064175
Качество видео: WEBRip
Формат видео: AVI
Видео: 720x384 (1.85:1), 25.000 fps, XviD 1.2.1~1739 kbps avg, 0.252 bit/pixel
Аудио: 48.0 kHz, AC-3, 2 ch, ~192 kbps

MediaInfo
General
Complete name : E:\Download\Et0t.MomeNt..avi
Format : AVI
Format/Info : Audio Video Interleave
File size : 1.37 GiB
Duration : 1h 40mn
Overall bit rate : 1 941 Kbps
Writing application : VirtualDubMod 1.5.10.3 | www.virtualdub-fr.org || (build 2550/release)
Writing library : VirtualDubMod build 2550/release
Video
ID : 0
Format : MPEG-4 Visual
Format profile : Advanced Simple@L5
Format settings, BVOP : 2
Format settings, QPel : No
Format settings, GMC : No warppoints
Format settings, Matrix : Default (MPEG)
Codec ID : XVID
Codec ID/Hint : XviD
Duration : 1h 40mn
Bit rate : 1 739 Kbps
Width : 720 pixels
Height : 384 pixels
Display aspect ratio : 1.85:1
Frame rate : 25.000 fps
Color space : YUV
Chroma subsampling : 4:2:0
Bit depth : 8 bits
Scan type : Progressive
Compression mode : Lossy
Bits/(Pixel*Frame) : 0.252
Stream size : 1.23 GiB (90%)
Writing library : XviD 1.2.1 (UTC 2008-12-04)
Audio
ID : 1
Format : AC-3
Format/Info : Audio Coding 3
Mode extension : CM (complete main)
Format settings, Endianness : Big
Codec ID : 2000
Duration : 1h 40mn
Bit rate mode : Constant
Bit rate : 192 Kbps
Channel(s) : 2 channels
Channel positions : Front: L R
Sampling rate : 48.0 KHz
Compression mode : Lossy
Stream size : 139 MiB (10%)
Alignment : Split accross interleaves
Interleave, duration : 40 ms (1.00 video frame)
Interleave, preload duratio : 500 ms
Скриншот c названием фильма Скриншоты
Скачать

Скачать торрент!

Как скачивать? · Что такое торрент? · Рейтинг и ограничения

Сайт не распространяет и не хранит электронные версии произведений, а лишь предоставляет доступ к создаваемому пользователями каталогу ссылок на торрент-файлы, которые содержат только списки хеш-сумм

[Профиль] [ЛС]
Показать сообщения:    
Ответить на тему

Текущее время: Сегодня 20:03

Часовой пояс: GMT + 4



Вы не можете начинать темы
Вы не можете отвечать на сообщения
Вы не можете редактировать свои сообщения
Вы не можете удалять свои сообщения
Вы не можете голосовать в опросах
Вы не можете прикреплять файлы к сообщениям
Вы не можете скачивать файлы