9 апреля / 9. april / April 9th (Рони Эзра / Roni Ezra) [2015, Дания, военный, исторический, драма, WEB-DLRip] + Sub Rus + Original Dan

Ответить на тему
 
Автор Сообщение

user ®

Стаж: 7 лет 7 месяцев

Сообщений: 20008

Пост Пост: #1 от 30-Авг-2015 00:18

[Цитировать]

9 апреля / 9. april / April 9th
Страна: Дания
Жанр: военный, исторический, драма
Год выпуска: 2015
Продолжительность: 01:28:50
Перевод: Субтитры
Cубтитры: русские
Оригинальная аудиодорожка: датский
Режиссер: Рони Эзра / Roni Ezra
В ролях: Ларс Миккельсен, Йохан Филип Асбек, Хоаким Фьелструп, Густав Дюэкьер Гис, Себастьян Булл Сарнинг, Мартин Грайс
Описание: Рано утром 9 апреля 1940 года войска фашистской Германии вторглись на территорию Дании.
Об одном дне боев датских солдат из велосипедного взвода под командованием младшего лейтенанта Санда рассказывается в этом фильме.
Доп. информация: Перевод субтитров - enoeno
Сэмпл: http://sendfile.su/1149905
Качество видео: WEB-DLRip
Формат видео: AVI
Видео: MPEG-4 Visual (FMP4), 720 x 480, 1.43 GB, 25.000 fps, 2 099 Kbps
Аудио: МР3, 192 Kbps, 48.0 KHz, 2 channels
Формат субтитров: softsub (SRT)
Образец субтитров
1
00:00:29,680 --> 00:00:33,920
А сейчас обращение Его величества короля.
2
00:00:34,080 --> 00:00:37,800
"В таких серьезных для нашего
отечества обстоятельствах
3
00:00:37,960 --> 00:00:41,080
я призываю всех городских
и сельских жителей
4
00:00:41,240 --> 00:00:45,640
к спокойному и сдержанному поведению,
5
00:00:45,800 --> 00:00:49,040
потому что любые ненужные
действия или заявления
6
00:00:49,200 --> 00:00:52,600
могут иметь серьезные последствия.
7
00:00:52,760 --> 00:00:55,080
Боже, храни вас всех.
8
00:00:55,240 --> 00:00:58,080
Боже, храни Данию".
9
00:00:58,240 --> 00:01:04,080
Король Кристиан, Амалиенборг,
9 апреля 1940 года.
10
00:01:06,633 --> 00:01:09,874
Рано утром 9 апреля 1940 года
многочисленные немецкие войска
перешли датско - германскую границу.
MediaInfo
General
Полное имя : G:\9_april\9_april.2015.avi
Формат : AVI
Формат/Информация : Audio Video Interleave
Профиль формата : OpenDML
Размер файла : 1.43 GiB
Продолжительность : 1h 28mn
Общий поток : 2 305 Kbps
Программа кодирования : Lavf55.33.100
Video
Идентификатор : 1
Формат : MPEG-4 Visual
Профиль формата : Simple@L1
Параметр BVOP формата : No
Параметр QPel формата : No
Параметр GMC формата : No warppoints
Параметр матрицы формата : Default (H.263)
Идентификатор кодека : FMP4
Продолжительность : 1h 28mn
Битрейт : 2 099 Kbps
Ширина : 720 pixels
Высота : 480 pixels
Соотношение сторон : 3:2
Частота кадров : 25.000 fps
Стандарт вещания : NTSC
Цветовое пространство : YUV
Субдискретизация насыщенности : 4:2:0
Битовая глубина : 8 bits
Тип развёртки : Progressive
Метод сжатия : Lossy
Бит/(Пиксели*Кадры) : 0.243
Размер потока : 1.30 GiB (91%)
Библиотека кодирования : Lavc55.52.102
Audio
Идентификатор : 0
Формат : MPEG Audio
Версия формата : Version 1
Профиль формата : Layer 3
Режим : Joint stereo
Расширение режима : MS Stereo
Идентификатор кодека : 55
Идентификатор кодека/Подсказка : MP3
Продолжительность : 1h 28mn
Вид битрейта : Constant
Битрейт : 192 Kbps
Каналы : 2 channels
Частота : 48.0 KHz
Метод сжатия : Lossy
Размер потока : 122 MiB (8%)
Выравнивание : Aligned on interleaves
Продолжительность промежутка : 40 ms (1.00 video frame)
Скриншот c названием фильма Скриншоты
Скачать

Скачать торрент!

Как скачивать? · Что такое торрент? · Рейтинг и ограничения

Сайт не распространяет и не хранит электронные версии произведений, а лишь предоставляет доступ к создаваемому пользователями каталогу ссылок на торрент-файлы, которые содержат только списки хеш-сумм

[Профиль] [ЛС]
Показать сообщения:    
Ответить на тему

Текущее время: Сегодня 10:02

Часовой пояс: GMT + 4



Вы не можете начинать темы
Вы не можете отвечать на сообщения
Вы не можете редактировать свои сообщения
Вы не можете удалять свои сообщения
Вы не можете голосовать в опросах
Вы не можете прикреплять файлы к сообщениям
Вы не можете скачивать файлы