Параграф 78 - Дилогия (Михаил Хлебородов) [2007, фантастика, боевик, триллер, DVDRip]

Ответить на тему
 
Автор Сообщение

user ®

Стаж: 7 лет 7 месяцев

Сообщений: 20008

Пост Пост: #1 от 29-Авг-2015 11:54

[Цитировать]

Параграф 78 - Дилогия - Параграф 78 - Фильм 1
Жанр: фантастика, боевик, триллер
Год выпуска: 2007
Продолжительность: 01:27:42
Режиссёр: Михаил Хлебородов
В ролях: Гоша Куценко, Владимир Вдовиченков, Григорий Сиятвинда, Слава, Станислав Дужников, Азиз Бейшеналиев, Анатолий Белый, Юсуп Бахшиев, Михаил Ефремов, Александр Тютин
Описание: Недалекое будущее. Народы мира наконец-то сумели прийти к соглашению по наиболее важным вопросам, и на планете возникло давно ожидаемое равновесие. Подписан договор о прекращении разработок оружия массового поражения, но в глубокой тайне все сверхдержавы продолжают наращивать военную мощь на засекреченных объектах, которых вродебы никогда не существовало. Гудвин, бывший командир отряда специального назначения, получает задание собрать своих бывших людей для выполнения ответственной миссии. Что-то очень серьезное случилось на спецбазе, где тайно работали над созданием нового боевого вируса, и недавние соратники, у которых уже почти не осталось ничего общего, вынуждены вновь собраться вместе.
Доп. информация: Сравнение с раздачей [url=http://***/forum/viewtopic.php?t=4884759]http://***/forum/viewtopic.php?t=4884759[/url] -> http://screenshotcomparison.com/comparison/139839/picture:2
Сэмпл: http://multi-up.com/1064239
Качество видео: DVDRip
Формат видео: AVI
Видео: XviD, 1932 kbps, 720x304, 25.0 fps
Аудио: AC3, 6 ch, 448 kbps, 48.0 kHz
MediaInfo
General
Complete name : J:\Torrents\Параграф 78 - Дилогия (2007) DVDRip.by Scarabey\Параграф 78 - Фильм 1 (2007) DVDRip.by Scarabey.avi
Format : AVI
Format/Info : Audio Video Interleave
File size : 1.46 GiB
Duration : 1h 27mn
Overall bit rate : 2 389 Kbps
Writing application : VirtualDubMod 1.5.10.2 (build 2540/release)
Writing library : VirtualDubMod build 2540/release
Video
ID : 0
Format : MPEG-4 Visual
Format profile : Advanced Simple@L5
Format settings, BVOP : 1
Format settings, QPel : No
Format settings, GMC : No warppoints
Format settings, Matrix : Default (MPEG)
Codec ID : XVID
Codec ID/Hint : XviD
Duration : 1h 27mn
Bit rate : 1 932 Kbps
Width : 720 pixels
Height : 304 pixels
Display aspect ratio : 2.35:1
Frame rate : 25.000 fps
Color space : YUV
Chroma subsampling : 4:2:0
Bit depth : 8 bits
Scan type : Progressive
Compression mode : Lossy
Bits/(Pixel*Frame) : 0.353
Stream size : 1.18 GiB (81%)
Writing library : XviD 1.2.0.dev47 (UTC 2006-11-01)
Audio
ID : 1
Format : AC-3
Format/Info : Audio Coding 3
Mode extension : CM (complete main)
Format settings, Endianness : Big
Codec ID : 2000
Duration : 1h 27mn
Bit rate mode : Constant
Bit rate : 448 Kbps
Channel(s) : 6 channels
Channel positions : Front: L C R, Side: L R, LFE
Sampling rate : 48.0 KHz
Compression mode : Lossy
Stream size : 281 MiB (19%)
Alignment : Split accross interleaves
Interleave, duration : 40 ms (1.00 video frame)
Interleave, preload duratio : 500 ms
Скриншот c названием фильма Скриншоты - Параграф 78 - Фильм 2
Жанр: фантастика, боевик, триллер
Год выпуска: 2007
Продолжительность: 01:29:53
Режиссёр: Михаил Хлебородов
В ролях: Гоша Куценко, Владимир Вдовиченков, Григорий Сиятвинда, Слава, Станислав Дужников, Азиз Бейшеналиев, Анатолий Белый, Юсуп Бахшиев, Михаил Ефремов, Александр Тютин
Описание: Выводы Доктора неутешительны: вирус мутировал, старый антидот не действует, и всем участникам операции придется навсегда остаться на базе. В свои права вступает "Параграф 78 Экспедиционного Устава" - "Если причина поражения неустранима, а возвращение представляет потенциальную угрозу, группа подлежит самоликвидации". Всем им довольно скоро придется погибнуть, превратившись перед этим в обезумевших кровожадных мутантов. Вирус должен окончательно сломить их всего через несколько часов. Но даже в этой ситуации никуда не деться сложным внутренним противоречиям между однополчанами. И в первую очередь - давней истории очень непростых взаимоотношений между Гудвином, Скифом и Лисой.
Доп. информация: Сравнение с раздачей [url=http://***/forum/viewtopic.php?t=4884759]http://***/forum/viewtopic.php?t=4884759[/url] -> http://screenshotcomparison.com/comparison/139839/picture:3
Сэмпл: http://multi-up.com/1064240
Качество видео: DVDRip
Формат видео: AVI
Видео: XviD, 1874 kbps, 720x304, 25.0 fps
Аудио: AC3, 6 ch, 448 kbps, 48.0 kHz
MediaInfo
General
Complete name : J:\Torrents\Параграф 78 - Дилогия (2007) DVDRip.by Scarabey\Параграф 78 - Фильм 2 (2007) DVDRip.by Scarabey.avi
Format : AVI
Format/Info : Audio Video Interleave
File size : 1.46 GiB
Duration : 1h 29mn
Overall bit rate : 2 332 Kbps
Writing application : VirtualDubMod 1.5.10.2 (build 2540/release)
Writing library : VirtualDubMod build 2540/release
Video
ID : 0
Format : MPEG-4 Visual
Format profile : Advanced Simple@L5
Format settings, BVOP : 1
Format settings, QPel : No
Format settings, GMC : No warppoints
Format settings, Matrix : Default (MPEG)
Codec ID : XVID
Codec ID/Hint : XviD
Duration : 1h 29mn
Bit rate : 1 874 Kbps
Width : 720 pixels
Height : 304 pixels
Display aspect ratio : 2.35:1
Frame rate : 25.000 fps
Color space : YUV
Chroma subsampling : 4:2:0
Bit depth : 8 bits
Scan type : Progressive
Compression mode : Lossy
Bits/(Pixel*Frame) : 0.342
Stream size : 1.18 GiB (80%)
Writing library : XviD 1.2.0.dev47 (UTC 2006-11-01)
Audio
ID : 1
Format : AC-3
Format/Info : Audio Coding 3
Mode extension : CM (complete main)
Format settings, Endianness : Big
Codec ID : 2000
Duration : 1h 29mn
Bit rate mode : Constant
Bit rate : 448 Kbps
Channel(s) : 6 channels
Channel positions : Front: L C R, Side: L R, LFE
Sampling rate : 48.0 KHz
Compression mode : Lossy
Stream size : 288 MiB (19%)
Alignment : Split accross interleaves
Interleave, duration : 40 ms (1.00 video frame)
Interleave, preload duratio : 500 ms
Скриншот c названием фильма Скриншоты
Скачать

Скачать торрент!

Как скачивать? · Что такое торрент? · Рейтинг и ограничения

Сайт не распространяет и не хранит электронные версии произведений, а лишь предоставляет доступ к создаваемому пользователями каталогу ссылок на торрент-файлы, которые содержат только списки хеш-сумм

[Профиль] [ЛС]
Показать сообщения:    
Ответить на тему

Текущее время: Сегодня 22:21

Часовой пояс: GMT + 4



Вы не можете начинать темы
Вы не можете отвечать на сообщения
Вы не можете редактировать свои сообщения
Вы не можете удалять свои сообщения
Вы не можете голосовать в опросах
Вы не можете прикреплять файлы к сообщениям
Вы не можете скачивать файлы