Сын Сатьямурти / S/o Satyamurthy (Тривикрам Шринивас / Trivikram Srinivas) [2015, Индия, мелодрама, HDRip-AVC] + Sub Rus

Ответить на тему
 
Автор Сообщение

user ®

Стаж: 12 лет

Сообщений: 15092

Пост Пост: #1 от 29-Авг-2015 02:33

[Цитировать]

Сын Сатьямурти / S/o Satyamurthy
Страна: Индия
Жанр: мелодрама
Год выпуска: 2015
Продолжительность: 02:40:33
Перевод: Субтитры
Cубтитры: русские
Оригинальная аудиодорожка: телугу
Перевод субтитров: Wita
Режиссер: Тривикрам Шринивас / Trivikram Srinivas
В ролях: Аллу Арджун, Саманта Рут Прабху, Нитья Менен, Упендра, Раджендра Прасад, Брахманандам, Снеха, Али, Пракаш Радж
Описание: Когда неожиданно погибает промышленный магнат Сатьямурти, его семья оказывается в затруднительном положении. Жена и дети лишаются дома, состояния, положения. Но трудности сплачивают их. Чтобы спасти семью от проблем, младший сын Сатьямурти Ананд берется устроить свадьбу каким-то богачам. Каково было его удивление, когда он узнал в невесте свою бывшую нареченную. Но не все так мрачно, и Ананду повезет – на этой самой свадьбе он встретит свою настоящую любовь.
Дополнительно. Для тех, кто будет брать релиз на другие ресурсы, убедительная просьба: сохраняйте оформление до буквы. Реализация рипа с субтитрами через интернет-магазины не предусмотрена
Сэмпл: http://multi-up.com/1064050
Качество видео: HDRip-AVC
Формат видео: MKV
Видео: x264, 1152 х 488, 2.35:1, 23.976 fps, 1 094 Kbps
Аудио: AC-3, 48.0 kHz, 448 kbps, 6 channels, Original
Формат субтитров: hardsub (неотключаемые)
MediaInfo
Complete name : Сын Сатьямурти.mkv
Format : Matroska
Format version : Version 2
File size : 1.73 GiB
Duration : 2h 40mn
Overall bit rate : 1 544 Kbps
Encoded date : UTC 2015-08-26 19:02:29
Writing application : mkvmerge v5.0.1 ('Es ist Sommer') built on Nov 6 2011 16:23:40
Writing library : libebml v1.2.2 + libmatroska v1.3.0
Video #1
ID : 1
Format : AVC
Format/Info : Advanced Video Codec
Format profile : High@L3.1
Format settings, CABAC : Yes
Format settings, ReFrames : 4 frames
Codec ID : V_MPEG4/ISO/AVC
Duration : 2h 40mn
Bit rate : 1 094 Kbps
Width : 1 152 pixels
Height : 488 pixels
Display aspect ratio : 2.35:1
Frame rate : 23.976 fps
Color space : YUV
Chroma subsampling : 4:2:0
Bit depth : 8 bits
Scan type : Progressive
Bits/(Pixel*Frame) : 0.081
Stream size : 1.19 GiB (69%)
Writing library : x264 core 119 r2106 07efeb4
Audio #2
ID : 2
Format : AC-3
Format/Info : Audio Coding 3
Mode extension : CM (complete main)
Codec ID : A_AC3
Duration : 2h 40mn
Bit rate mode : Constant
Bit rate : 448 Kbps
Channel(s) : 6 channels
Channel positions : Front: L C R, Side: L R, LFE
Sampling rate : 48.0 KHz
Bit depth : 16 bits
Compression mode : Lossy
Stream size : 514 MiB (29%)
Скриншот c названием фильма Скриншоты
Скачать

Скачать торрент! Сын Сатьямурти / S/o Satyamurthy (Тривикрам Шринивас / Trivikram Srinivas) [2015, Индия, мелодрама, HDRip-AVC] + Sub Rus

Как скачивать? · Что такое торрент? · Рейтинг и ограничения

Сайт не распространяет и не хранит электронные версии произведений, а лишь предоставляет доступ к создаваемому пользователями каталогу ссылок на торрент-файлы, которые содержат только списки хеш-сумм

[Профиль] [ЛС]
Показать сообщения:    
Ответить на тему

Текущее время: Сегодня 12:24

Часовой пояс: GMT + 4



Вы не можете начинать темы
Вы не можете отвечать на сообщения
Вы не можете редактировать свои сообщения
Вы не можете удалять свои сообщения
Вы не можете голосовать в опросах
Вы не можете прикреплять файлы к сообщениям
Вы не можете скачивать файлы