Ниже холма 60 / Beneath Hill 60 (Джереми Симс / Jeremy Sims) [2010, Австралия, драма, военный, история, HDRip] VO (WSmit60)

Ответить на тему
 
Автор Сообщение

user ®

Стаж: 7 лет 7 месяцев

Сообщений: 20008

Пост Пост: #1 от 19-Ноя-2010 16:19

[Цитировать]

Ниже холма 60 / Beneath Hill 60
Страна: Австралия
Жанр: драма, военный, история
Год выпуска: 2010
Продолжительность: 02:02:10
Перевод: Любительский (одноголосый закадровый) Доп.инфо о переводе (WSmit60)
Cубтитры: нет
Режиссер: Джереми Симс / Jeremy Sims
В ролях: Брендан Коуэлл, Харрисон Джилбертсон, Стив Ле Маркванд, Гайтон Грантли, Алекс Томпсон, Дункан Янг, Алан Дьюкс, Марк Коулз Смит, Уорвик Янг, Энтони Хэйес
Описание: К 1916 году Первая мировая война достигла патовой ситуации. Линия фронта протянулась от Ламанша до Швейцарских Альп. Погибли миллион людей. В попытке что-то изменить шахтеры, гражданские люди спустились в тоннели под расположением врага. Началась тайная, безмолвная, подземная война… Фильм основан на реальных событиях.
Сэмпл: http://multi-up.com/374735
Качество видео: HDRip (Beneath.Hill.60.2010.720p.BluRay.DTS-LTT)
Формат видео: AVI
Видео: XviD, 1316 Kbps, 720 х 304 pixels, 23.976 fps
Аудио: AC3, 384 Kbps, 6 channels, Front: L C R, Side: L R, LFE, 48.0 KHz

MediaInfo

General
Complete name : E:\torrent\Beneath.Hill.60.2010.HDRip\Beneath.Hill.60.2010.HDRip.avi
Format : AVI
Format/Info : Audio Video Interleave
File size : 1.46 GiB
Duration : 2h 2mn
Overall bit rate : 1 710 Kbps
Writing application : VirtualDubModRus 1.5.10.2 (build 2542/release)
Writing library : VirtualDubMod build 2542/release
Video
ID : 0
Format : MPEG-4 Visual
Format profile : Advanced Simple@L5
Format settings, BVOP : Yes
Format settings, QPel : No
Format settings, GMC : No warppoints
Format settings, Matrix : Default (MPEG)
Codec ID : XVID
Codec ID/Hint : XviD
Duration : 2h 2mn
Bit rate : 1 316 Kbps
Width : 720 pixels
Height : 304 pixels
Display aspect ratio : 2.35:1
Frame rate : 23.976 fps
Color space : YUV
Chroma subsampling : 4:2:0
Bit depth : 8 bits
Scan type : Progressive
Bits/(Pixel*Frame) : 0.251
Stream size : 1.12 GiB (77%)
Writing library : XviD 1.2.1 (UTC 2008-12-04)
Audio
ID : 1
Format : AC-3
Format/Info : Audio Coding 3
Mode extension : CM (complete main)
Codec ID : 2000
Duration : 2h 2mn
Bit rate mode : Constant
Bit rate : 384 Kbps
Channel(s) : 6 channels
Channel positions : Front: L C R, Side: L R, LFE
Sampling rate : 48.0 KHz
Bit depth : 16 bits
Stream size : 336 MiB (22%)
Alignment : Split accross interleaves
Interleave, duration : 42 ms (1.00 video frame)
Interleave, preload duration : 500 ms

Скриншот c названием фильма

Скриншоты

Скачать

Скачать торрент!

Как скачивать? · Что такое торрент? · Рейтинг и ограничения

Сайт не распространяет и не хранит электронные версии произведений, а лишь предоставляет доступ к создаваемому пользователями каталогу ссылок на торрент-файлы, которые содержат только списки хеш-сумм

[Профиль] [ЛС]
Показать сообщения:    
Ответить на тему

Текущее время: Сегодня 14:45

Часовой пояс: GMT + 4



Вы не можете начинать темы
Вы не можете отвечать на сообщения
Вы не можете редактировать свои сообщения
Вы не можете удалять свои сообщения
Вы не можете голосовать в опросах
Вы не можете прикреплять файлы к сообщениям
Вы не можете скачивать файлы