Наша Russia: Яйца судьбы (Глеб Орлов) [2010, Комедия, BDRip 720p]

Ответить на тему
 
Автор Сообщение

user ®

Стаж: 7 лет 7 месяцев

Сообщений: 20008

Пост Пост: #1 от 28-Авг-2015 14:09

[Цитировать]

Наша Russia: Яйца судьбы«Суровая комедия о жителях великой страны» Жанр: Комедия
Год выпуска: 2010
Продолжительность: 01:26:29
Режиссёр: Глеб Орлов
В ролях: Сергей Светлаков, Михаил Галустян, Валерий Магдьяш, Александр Семчев, Виктор Вержбицкий, Роман Мадянов, Наталья Харахорина, Николай Басков, Михаил Багдасаров, Яна Романченко
Описание: Рафшан и Джумжуд, гастарбайтеры из Нубарашена, нелегально приезжают в Москву, где бригадир Леонид получил у одного олигарха заказ на супердорогой ремонт. Потеряв в столице «нацайника», Рафшан и Джумжуд пытаются найти и спасти его, сея повсюду разрушения и хаос. Но в самой безнадёжной ситуации судьба поворачивается к гастарбайтерам лицом — Рафшан и Джумжуд узнают страшную тайну, которая изменит всё…

Качество видео: BDRip 720p (Исх. Blu-Ray Remux (1080p))
Формат видео: MKV
Видео: 1280x544 (2.35:1) at 23.976 fps, AVC at 4081 kbps avg, 0.24 bit/pixel
Аудио: 48 kHz, AC3, 6 ch, 640 kbps avg
MediaInfo
Общее
Уникальный идентификатор : 229106679073944412150841128605529189088 (0xAC5C5763F17744209DCB431C9514AAE0)
Полное имя : S:\Наша Russia. Яйца судьбы. 2010. BDRip 720p (AleksSin).mkv
Формат : Matroska
Версия формата : Version 4 / Version 2
Размер файла : 2,91 Гбайт
Продолжительность : 1 ч. 26 м.
Общий поток : 4817 Кбит/сек
Дата кодирования : UTC 2015-08-27 20:18:57
Программа кодирования : mkvmerge v8.1.0 ('Psychedelic Postcard') 32bit
Библиотека кодирования : libebml v1.3.1 + libmatroska v1.4.2
DURATION : 01:26:29.536000000
NUMBER_OF_FRAMES : 162173
NUMBER_OF_BYTES : 415162880
_STATISTICS_WRITING_APP : mkvmerge v8.1.0 ('Psychedelic Postcard') 32bit
_STATISTICS_WRITING_DATE_UTC : 2015-08-27 20:18:57
_STATISTICS_TAGS : BPS DURATION NUMBER_OF_FRAMES NUMBER_OF_BYTES
Видео
Идентификатор : 1
Формат : AVC
Формат/Информация : Advanced Video Codec
Профиль формата : High@L4.1
Параметр CABAC формата : Да
Параметр ReFrames формата : 9 кадров
Идентификатор кодека : V_MPEG4/ISO/AVC
Продолжительность : 1 ч. 26 м.
Битрейт : 4081 Кбит/сек
Ширина : 1280 пикселей
Высота : 544 пикселя
Соотношение сторон : 2,35:1
Режим частоты кадров : Постоянный
Частота кадров : 23,976 кадра/сек
Цветовое пространство : YUV
Субдискретизация насыщенности : 4:2:0
Битовая глубина : 8 бит
Тип развёртки : Прогрессивная
Бит/(Пиксели*Кадры) : 0.244
Размер потока : 2,47 Гбайт (85%)
Библиотека кодирования : x264 core 146 r2538 121396c
Настройки программы : cabac=1 / ref=9 / deblock=1:-3:-3 / analyse=0x3:0x133 / me=umh / subme=11 / psy=1 / psy_rd=1.00:0.15 / mixed_ref=1 / me_range=32 / chroma_me=1 / trellis=2 / 8x8dct=1 / cqm=0 / deadzone=21,11 / fast_pskip=0 / chroma_qp_offset=-3 / threads=12 / lookahead_threads=2 / sliced_threads=0 / nr=0 / decimate=0 / interlaced=0 / bluray_compat=0 / constrained_intra=0 / bframes=8 / b_pyramid=2 / b_adapt=2 / b_bias=0 / direct=3 / weightb=1 / open_gop=0 / weightp=2 / keyint=250 / keyint_min=23 / scenecut=40 / intra_refresh=0 / rc_lookahead=40 / rc=crf / mbtree=1 / crf=17.0 / qcomp=0.60 / qpmin=0 / qpmax=69 / qpstep=4 / ip_ratio=1.40 / aq=1:0.80
Default : Да
Forced : Нет
Аудио
Идентификатор : 2
Формат : AC-3
Формат/Информация : Audio Coding 3
Расширение режима : CM (complete main)
Параметр Endianness формата : Big
Идентификатор кодека : A_AC3
Продолжительность : 1 ч. 26 м.
Вид битрейта : Постоянный
Битрейт : 640 Кбит/сек
Каналы : 6 каналов
Расположение каналов : Front: L C R, Side: L R, LFE
Частота : 48,0 КГц
Битовая глубина : 16 бит
Метод сжатия : С потерями
Размер потока : 396 Мбайт (13%)
Default : Да
Forced : Нет
Скриншот c названием фильма Скриншоты
Скачать

Скачать торрент!

Как скачивать? · Что такое торрент? · Рейтинг и ограничения

Сайт не распространяет и не хранит электронные версии произведений, а лишь предоставляет доступ к создаваемому пользователями каталогу ссылок на торрент-файлы, которые содержат только списки хеш-сумм

[Профиль] [ЛС]
Показать сообщения:    
Ответить на тему

Текущее время: Сегодня 21:24

Часовой пояс: GMT + 4



Вы не можете начинать темы
Вы не можете отвечать на сообщения
Вы не можете редактировать свои сообщения
Вы не можете удалять свои сообщения
Вы не можете голосовать в опросах
Вы не можете прикреплять файлы к сообщениям
Вы не можете скачивать файлы