Синистeр 2 / Sinister 2 (Киран Фой / Ciarán Foy) [2015, США, ужасы, CAMRip] Dub

Ответить на тему
 
Автор Сообщение

user ®

Стаж: 7 лет 7 месяцев

Сообщений: 20008

Пост Пост: #1 от 28-Авг-2015 04:54

[Цитировать]

Синистeр / Sinister 2
Страна: США
Жанр: ужасы
Год выпуска: 2015
Продолжительность: 01:29:30
Перевод: Профессиональный (дублированный)
Cубтитры: нет
Оригинальная аудиодорожка: нет
Режиссер: Киран Фой / Ciarán Foy
В ролях: Джеймс Рэнсон, Шаннин Соссамон, Роберт Дэниэл Слоун, Дартаниан Слоун, Лиа Коко, Тейт Эллингтон, Джон Бизли, Лукас Джейд Зуманн, Джейден Клейн, Лайла Хейли
Описание: Сиквел рассказывает о молодом шерифе, решившем продолжить расследование серии таинственных убийств, описанных в первой части фильма, из-за которых в своё время потерял жизнь друг шерифа, сержант Элиссон Освальф.
Расследование приводит шерифа к ферме, где он знакомится с дружелюбной семьей — близнецами Заком, Диланом и их матерью Кортни. Семьей, сбежавшей от издевательств жестокого отца. Каждый день, проведенный в этом доме, может стать для них последним, как и для всех, кто жил здесь ранее и попал в поле зрения самой смерти — беспощадного демона Багула.
Сэмпл: https://yadi.sk/i/1kENKVVmihUdZ
Качество видео: CAMRip
Формат видео: AVI
Видео: 980 kbps, 720x416, 25,000 fps
Аудио: MP3, 128 kb/s (2 ch)
MediaInfo
Общее
Полное имя : D:\Sinister2.2015.CAMRip.avi
Формат : AVI
Формат/Информация : Audio Video Interleave
Размер файла : 715 Мбайт
Продолжительность : 1 ч. 29 м.
Общий поток : 1117 Кбит/сек
Программа кодирования : VirtualDubMod 1.5.10.2 (build 2540/release)
Библиотека кодирования : VirtualDubMod build 2540/release
Видео
Идентификатор : 0
Формат : MPEG-4 Visual
Профиль формата : Advanced Simple@L5
Параметр BVOP формата : 2
Параметр QPel формата : Нет
Параметр GMC формата : Без точки перехода
Параметр матрицы формата : Default (MPEG)
Идентификатор кодека : XVID
Идентификатор кодека/Подсказка : XviD
Продолжительность : 1 ч. 29 м.
Битрейт : 980 Кбит/сек
Ширина : 720 пикселей
Высота : 416 пикселей
Соотношение сторон : 1,731
Частота кадров : 25,000 кадров/сек
Цветовое пространство : YUV
Субдискретизация насыщенности : 4:2:0
Битовая глубина : 8 бит
Тип развёртки : Прогрессивная
Метод сжатия : С потерями
Бит/(Пиксели*Кадры) : 0.131
Размер потока : 627 Мбайт (88%)
Библиотека кодирования : XviD 1.2.1 (UTC 2008-12-04)
Аудио
Идентификатор : 1
Формат : MPEG Audio
Версия формата : Version 1
Профиль формата : Layer 3
Идентификатор кодека : 55
Идентификатор кодека/Подсказка : MP3
Продолжительность : 1 ч. 29 м.
Вид битрейта : Постоянный
Битрейт : 128 Кбит/сек
Каналы : 2 канала
Частота : 48,0 КГц
Метод сжатия : С потерями
Размер потока : 81,9 Мбайт (11%)
Выравнивание : Соединение по промежуткам
Продолжительность промежутка : 40 мс. (1,00 видеокадр)
Время предзагрузки промежутка : 504 мс.
Библиотека кодирования : LAME3.98r
Настройки программы : -m s -V 4 -q 2 -lowpass 17 -b 128
Скриншоты
Скачать

Скачать торрент!

Как скачивать? · Что такое торрент? · Рейтинг и ограничения

Сайт не распространяет и не хранит электронные версии произведений, а лишь предоставляет доступ к создаваемому пользователями каталогу ссылок на торрент-файлы, которые содержат только списки хеш-сумм

[Профиль] [ЛС]
Показать сообщения:    
Ответить на тему

Текущее время: Сегодня 09:44

Часовой пояс: GMT + 4



Вы не можете начинать темы
Вы не можете отвечать на сообщения
Вы не можете редактировать свои сообщения
Вы не можете удалять свои сообщения
Вы не можете голосовать в опросах
Вы не можете прикреплять файлы к сообщениям
Вы не можете скачивать файлы