Самый обычный мальчик / The boy (Крейг Макнил / Craig Macneill) [2015, США, драма, триллер, WEB-DLRip] VO (LetEatBee)

Ответить на тему
 
Автор Сообщение

user ®

Стаж: 7 лет 7 месяцев

Сообщений: 20008

Пост Пост: #1 от 28-Авг-2015 04:54

[Цитировать]

Самый обычный мальчик / The boy
Страна: США
Жанр: драма, триллер
Год выпуска: 2015
Продолжительность: 01:50:31
Перевод: Одноголосый закадровый LetEatBee по субтитрам М. Васильева
Cубтитры: нет
Режиссер: Крейг Макнил / Craig Macneill
В ролях: Джаред Бриз, Дэвид Морс, Рэйн Уилсон, Майк Вогель, Эйден Лавкамп
Описание: Глухая американская провинция, 1989 год. В мотеле среди лесов и гор живут отец и сын. Семейный бизнес медленно, но верно идет ко дну. Отец слишком погружен в себя, чтобы уделять внимание 9-летнему ребенку и тот сам придумывает себе развлечения. С течением времени развлечения эти становятся все более странными...
Доп. информация: Фильм никуда не спешит. Режиссер явно пребывает в экстазе от возможности в течение 10 минут в полной тишине наблюдать за своими героями
Режиссер определил цель фильм просто: «Побольше внимания своим (и чужим детям), а то не заметите, как из самого обычного ребенка вырастет самый обычный маньяк».
Мнения критиков о фильме были полярные.
Рецензент влиятельной Variety написал, что «хотя авторы укокошили кучу народа, фильм все равно издевательски скучный и затянутый».
С ним не согласился не менее влиятельный Time, назвавший картину «таинственной, гипнотизирующей и пробуждающей фантазию».
Впрочем, все критики хвалили работу оператора и композитора (главную музыкальную тему фильма назвали «гениальной»), проводили параллели с творчеством раннего Стивена Кинга и вспоминали легендарный фильм «Кэрри» (1976)
Режиссер уже заявил, что у него планы на полноценную франшизу и вскоре последует продолжение, из которого мы узнаем о дальнейшей жизни главного героя.
Мотель, на территории которого происходит действие всего фильма, был полностью, «с нуля», построен специально для сьемок фильма. На это ушло 2 месяца.
Сэмпл: https://yadi.sk/i/Z161dyAsihPyo
Качество видео: WEB-DLRip
Формат видео: AVI
Видео: 1247 Kbps, 720x304 (2.35:1) 23 976 fps, MPEG 4 XviD
Аудио: 384 Kbps, 48.0 KHz, 16 bits, 6 ch, AC 3
MediaInfo
General
Complete name : S:\VIDEO\ОбычныйМальчик\ОбычныйМальчикR.avi
Format : AVI
Format/Info : Audio Video Interleave
File size : 1.27 GiB
Duration : 1h 50mn
Overall bit rate : 1 641 Kbps
Writing library : VirtualDub build 35491/release
Video
ID : 0
Format : MPEG-4 Visual
Format profile : Advanced Simple@L5
Format settings, BVOP : 2
Format settings, QPel : No
Format settings, GMC : No warppoints
Format settings, Matrix : Default (H.263)
Muxing mode : Packed bitstream
Codec ID : XVID
Codec ID/Hint : XviD
Duration : 1h 50mn
Bit rate : 1 247 Kbps
Width : 720 pixels
Height : 304 pixels
Display aspect ratio : 2.35:1
Frame rate : 23.976 fps
Color space : YUV
Chroma subsampling : 4:2:0
Bit depth : 8 bits
Scan type : Progressive
Compression mode : Lossy
Bits/(Pixel*Frame) : 0.238
Stream size : 986 MiB (76%)
Writing library : XviD 66
Audio
ID : 1
Format : AC-3
Format/Info : Audio Coding 3
Mode extension : CM (complete main)
Format settings, Endianness : Big
Codec ID : 2000
Duration : 1h 50mn
Bit rate mode : Constant
Bit rate : 384 Kbps
Channel(s) : 6 channels
Channel positions : Front: L C R, Side: L R, LFE
Sampling rate : 48.0 KHz
Bit depth : 16 bits
Compression mode : Lossy
Stream size : 304 MiB (23%)
Alignment : Aligned on interleaves
Interleave, duration : 42 ms (1.00 video frame)
Interleave, preload duration : 512 ms
Скриншот c названием фильма Скриншоты
Скачать

Скачать торрент!

Как скачивать? · Что такое торрент? · Рейтинг и ограничения

Сайт не распространяет и не хранит электронные версии произведений, а лишь предоставляет доступ к создаваемому пользователями каталогу ссылок на торрент-файлы, которые содержат только списки хеш-сумм

[Профиль] [ЛС]
Показать сообщения:    
Ответить на тему

Текущее время: Сегодня 22:42

Часовой пояс: GMT + 4



Вы не можете начинать темы
Вы не можете отвечать на сообщения
Вы не можете редактировать свои сообщения
Вы не можете удалять свои сообщения
Вы не можете голосовать в опросах
Вы не можете прикреплять файлы к сообщениям
Вы не можете скачивать файлы