Герои, стреляющие по орлам / The Eagle Shooting Heroes / Se diu ying hung ji dung sing sai jau (Джеффри Лау / Jeffrey Lau) [1993, Гонконг, комедия, пародия, экшн, DVDRip] VO (Jonne) + Sub Rus

Ответить на тему
 
Автор Сообщение

user ®

Стаж: 13 лет

Сообщений: 15071

Пост Пост: #1 от 28-Авг-2015 01:48

[Цитировать]

Герои, стреляющие по орлам / The Eagle Shooting Heroes / Se diu ying hung ji dung sing sai jau / Ремастенговая версия
Страна: Гонконг
Жанр: комедия, пародия, экшн
Год выпуска: 1993
Продолжительность: 01:43:09
Перевод: Одноголосый закадровый (Jonne)
Cубтитры: русские
Оригинальная аудиодорожка: китайская
Режиссер: Джеффри Лау / Jeffrey Lau
В ролях: Лесли Чун (Leslie Cheung), Бриджит Лин (Brigitte Lin), Мэгги Чун (Maggie Cheung), Тони Люн Чу Вай (Tony Chiu Wai Leung), Тони Люн Ка Фай (Tony Leung Ka Fai), Джеки Чун (Jacky Cheung), Карина Лау (Carina Lau), Джои Ван (Joey Wong), Вероника Йип (Veronica Yip), Кенни Би (Kenny Bee).
Описание: Фильм по мотивам романа Луиса Ча "Герои, стреляющие по орлам". Оуян Фэнг, племянник
персидского короля, в любовных отношениях со своей кузиной, королевой. Вдвоем они решают
захватить трон. Чтобы осуществить этот дерзкий план им нужно захватить императорскую печать.
Доп. информация:


Укороченая ремастенговая версия (вырезано 00:09:45)
Сэмпл: http://sendfile.su/1149106
Качество видео: DVDRip
Формат видео: AVI
Видео: XVID, 720x416, соотношение сторон: 1,731, 23,976 кадра/сек, Битрейт: 1825 Кбит/сек
Аудио: AC-3, 48,0 КГц, 2 канала, 192 Кбит/сек (русская)
Аудио 2: AC-3, 48,0 КГц, 2 канала, 192 Кбит/сек (китайская)
Формат субтитров: softsub (SRT)
MediaInfo
Общее
Полное имя : F:\The Eagle Shooting Heroes (1993)_by_Jonne\The Eagle Shooting Heroes (1993)_Jonne.avi
Формат : AVI
Формат/Информация : Audio Video Interleave
Размер файла : 1,60 Гбайт
Продолжительность : 1 ч. 43 м.
Общий поток : 2223 Кбит/сек
Программа кодирования : VirtualDubModRus 1.5.10.2 (build 2542/release)
Библиотека кодирования : VirtualDubMod build 2542/release
Видео
Идентификатор : 0
Формат : MPEG-4 Visual
Профиль формата : Advanced Simple@L5
Параметр BVOP формата : 1
Параметр QPel формата : Нет
Параметр GMC формата : Без точки перехода
Параметр матрицы формата : Выборочная
Идентификатор кодека : XVID
Идентификатор кодека/Подсказка : XviD
Продолжительность : 1 ч. 43 м.
Битрейт : 1825 Кбит/сек
Ширина : 720 пикселей
Высота : 416 пикселей
Соотношение сторон : 1,731
Частота кадров : 23,976 кадра/сек
Цветовое пространство : YUV
Субдискретизация насыщенности : 4:2:0
Битовая глубина : 8 бит
Тип развёртки : Прогрессивная
Метод сжатия : С потерями
Бит/(Пиксели*Кадры) : 0.254
Размер потока : 1,31 Гбайт (82%)
Библиотека кодирования : XviD 1.2.0SMP (UTC 2006-01-08)
Аудио #1
Идентификатор : 1
Формат : AC-3
Формат/Информация : Audio Coding 3
Расширение режима : CM (complete main)
Параметр Endianness формата : Big
Идентификатор кодека : 2000
Продолжительность : 1 ч. 43 м.
Вид битрейта : Постоянный
Битрейт : 192 Кбит/сек
Каналы : 2 канала
Расположение каналов : Front: L R
Частота : 48,0 КГц
Метод сжатия : С потерями
Размер потока : 142 Мбайт (9%)
Выравнивание : Разделение по промежуткам
Продолжительность промежутка : 42 мс. (1,00 видеокадр)
Время предзагрузки промежутка : 500 мс.
Аудио #2
Идентификатор : 2
Формат : AC-3
Формат/Информация : Audio Coding 3
Расширение режима : CM (complete main)
Параметр Endianness формата : Big
Идентификатор кодека : 2000
Продолжительность : 1 ч. 43 м.
Вид битрейта : Постоянный
Битрейт : 192 Кбит/сек
Каналы : 2 канала
Расположение каналов : Front: L R
Частота : 48,0 КГц
Метод сжатия : С потерями
Размер потока : 142 Мбайт (9%)
Выравнивание : Разделение по промежуткам
Продолжительность промежутка : 42 мс. (1,00 видеокадр)
Время предзагрузки промежутка : 500 мс.
Скриншот c названием фильма Скриншоты
Скачать

Скачать торрент! Герои, стреляющие по орлам / The Eagle Shooting Heroes / Se diu ying hung ji dung sing sai jau (Джеффри Лау / Jeffrey Lau) [1993, Гонконг, комедия, пародия, экшн, DVDRip] VO (Jonne) + Sub Rus

Как скачивать? · Что такое торрент? · Рейтинг и ограничения

Сайт не распространяет и не хранит электронные версии произведений, а лишь предоставляет доступ к создаваемому пользователями каталогу ссылок на торрент-файлы, которые содержат только списки хеш-сумм

[Профиль] [ЛС]
Показать сообщения:    
Ответить на тему

Текущее время: Сегодня 15:57

Часовой пояс: GMT + 4



Вы не можете начинать темы
Вы не можете отвечать на сообщения
Вы не можете редактировать свои сообщения
Вы не можете удалять свои сообщения
Вы не можете голосовать в опросах
Вы не можете прикреплять файлы к сообщениям
Вы не можете скачивать файлы