Легенда о княгине Ольге (Юрий Ильенко) [1983, исторический, драма, DVDRip]

Ответить на тему
 
Автор Сообщение

user ®

Стаж: 7 лет 7 месяцев

Сообщений: 20008

Пост Пост: #1 от 27-Авг-2015 19:36

[Цитировать]

Легенда о княгине Ольге Жанр: исторический, драма
Выпущено: УССР, киностудия им. А. Довженко
Год выпуска: 1983
Продолжительность: 02:07:27
Режиссёр: Юрий Ильенко
В ролях: Людмила Ефименко, Лесь Сердюк, Константин Степанков, Иван Миколайчук, Ваня Иванов, Иван Гаврилюк, Дмитрий Миргородский, Николай Олялин, Светлана Ромашко, Георгий Морозюк, Александр Денисенко, Виктор Демерташ, Юрий Дубровин, Михаил Голубович, Леонид Оболенский, Александр Загребельный, Иван Савкин, Филипп Ильенко, Николай Вороненко, Виктор Панченко, Виктор Панченко, Наталья Гура, Евгений Коваленко, Алексей Колесник, Константин Степанков мл., Виктор Маляревич, Юрий Мысенков, Юрий Рыбальченко, Игорь Шкурин, Владик Комаров, Семён Котляренко, Виктор Андриенко
Описание: Многоплановое поэтическое повествование на основе летописей и сказаний, воссоздающее образ Ольги, княгини Киевской Руси середины X века, первой из русских правителей принявшей христианство. Престарелый великий князь киевский Владимир Красное Солнышко, внук Ольги, умирает в своих покоях. Он вспоминает свою жизнь от отрочества до прихода в Новгород на княжение. Перед зрителем проходит несколько версий жизни Ольги, основанных на воспоминания знавших её людей: монаха Арефы, ключницы Малуши и самого князя Владимира. Версий порой взаимоисключающих, но именно потому дающих противоречивый и сложный образ великой княгини. Картина смотрится с неотступным напряжением, интересна запоминающимися, крепкими персонажами.
Доп. информация: Собственный рип. Звук "чище" и громче, чем у издания от Твистер.
Сэмпл: http://multi-up.com/1064030
Качество видео: DVDRip
[url=http://***/forum/viewtopic.php?t=4818283]Исходник[/url]
Формат видео: AVI
Видео: XviD, 720x304 (2.35:1), 25.000 fps, 2105 kbps avg
Аудио: Russian AC3 Dolby Digital, 48 kHz, 2/0 (L,R) ch, 192.00 kbps avg
MediaInfo
General
Complete name : F:\Legenda o knyagine Olge (1983)\Legenda o knyagine Olge_1983.DVDRip.Rus.avi
Format : AVI
Format/Info : Audio Video Interleave
Format profile : OpenDML
File size : 2.06 GiB
Duration : 2h 7mn
Overall bit rate : 2 310 Kbps
Writing application : VirtualDubMod 1.5.10.3 | www.virtualdub-fr.org || (build 2550/release)
Writing library : VirtualDubMod build 2550/release
Video
ID : 0
Format : MPEG-4 Visual
Format profile : Advanced Simple@L5
Format settings, BVOP : 1
Format settings, QPel : No
Format settings, GMC : No warppoints
Format settings, Matrix : Default (MPEG)
Codec ID : XVID
Codec ID/Hint : XviD
Duration : 2h 7mn
Bit rate : 2 105 Kbps
Width : 720 pixels
Height : 304 pixels
Display aspect ratio : 2.35:1
Frame rate : 25.000 fps
Color space : YUV
Chroma subsampling : 4:2:0
Bit depth : 8 bits
Scan type : Progressive
Compression mode : Lossy
Bits/(Pixel*Frame) : 0.385
Stream size : 1.87 GiB (91%)
Writing library : XviD 73
Audio
ID : 1
Format : AC-3
Format/Info : Audio Coding 3
Mode extension : CM (complete main)
Format settings, Endianness : Big
Codec ID : 2000
Duration : 2h 7mn
Bit rate mode : Constant
Bit rate : 192 Kbps
Channel(s) : 2 channels
Channel positions : Front: L R
Sampling rate : 48.0 KHz
Bit depth : 16 bits
Compression mode : Lossy
Stream size : 175 MiB (8%)
Alignment : Split accross interleaves
Interleave, duration : 40 ms (1.00 video frame)
Interleave, preload duration : 500 ms
Скриншоты Сравнение
[url=http://***/forum/viewtopic.php?t=3102143]http://***/forum/viewtopic.php?t=3102143[/url]
http://screenshotcomparison.com/comparison/140159/picture:0
Скачать

Скачать торрент!

Как скачивать? · Что такое торрент? · Рейтинг и ограничения

Сайт не распространяет и не хранит электронные версии произведений, а лишь предоставляет доступ к создаваемому пользователями каталогу ссылок на торрент-файлы, которые содержат только списки хеш-сумм

[Профиль] [ЛС]
Показать сообщения:    
Ответить на тему

Текущее время: Сегодня 22:41

Часовой пояс: GMT + 4



Вы не можете начинать темы
Вы не можете отвечать на сообщения
Вы не можете редактировать свои сообщения
Вы не можете удалять свои сообщения
Вы не можете голосовать в опросах
Вы не можете прикреплять файлы к сообщениям
Вы не можете скачивать файлы