Ночная бригада / The Night Crew / Blackwater (Кристиан Сесма / Christian Sesma) [2015, США, боевик, триллер, HDRip] MVO (iTunes)

Ответить на тему
 
Автор Сообщение

user ®

Стаж: 7 лет 7 месяцев

Сообщений: 20008

Пост Пост: #1 от 27-Авг-2015 10:18

[Цитировать]

Ночная бригада / The Night Crew / Blackwater
Страна: США
Жанр: боевик, триллер
Год выпуска: 2015
Продолжительность: 01:28:38
Перевод: Профессиональный (многоголосый закадровый) iTunes
Cубтитры: нет
Оригинальная аудиодорожка: нет
Режиссер: Кристиан Сесма / Christian Sesma
В ролях: Дэнни Трехо, Джейсон Мьюз, Чести Бальестерос, Люк Госс, Букем Вудбайн, Кристин Нгуйен, Жаклин Лорд, Бруна Рубио, Роберто «Санс» Санчес, Лусиана Фолхебер
Описание: Команда безбашенных искателей приключений пытается выжить ночью в мотеле посреди пустыни, обороняясь от орды жестоких убийц.
Сэмпл: http://multi-up.com/1063814
Качество видео: HDRip (исходник не известен)
Формат видео: AVI
Видео: Xvid 720x400 25.00fps 1 814 Kbps
Аудио: Dolby AC3 48000Hz 6ch 384kbps
MediaInfo
Format : AVI
Format/Info : Audio Video Interleave
File size : 1.37 GiB
Duration : 1h 28mn
Overall bit rate : 2 207 Kbps
Writing application : VirtualDubMod 1.5.10.2 (build 2540/release)
Writing library : VirtualDubMod build 2540/release
Video
ID : 0
Format : MPEG-4 Visual
Format profile : Advanced Simple@L5
Format settings, BVOP : Yes
Format settings, QPel : No
Format settings, GMC : No warppoints
Format settings, Matrix : Default (MPEG)
Codec ID : XVID
Codec ID/Hint : XviD
Duration : 1h 28mn
Bit rate : 1 814 Kbps
Width : 720 pixels
Height : 400 pixels
Display aspect ratio : 16:9
Frame rate : 25.000 fps
Resolution : 8 bits
Colorimetry : 4:2:0
Scan type : Progressive
Bits/(Pixel*Frame) : 0.252
Stream size : 1.12 GiB (82%)
Writing library : XviD 1.2.1 (UTC 2008-12-04)
Audio
ID : 1
Format : AC-3
Format/Info : Audio Coding 3
Codec ID : 2000
Duration : 1h 28mn
Bit rate mode : Constant
Bit rate : 384 Kbps
Channel(s) : 6 channels
Channel positions : Front: L C R, Surround: L R, LFE
Sampling rate : 48.0 KHz
Stream size : 243 MiB (17%)
Alignment : Split accross interleaves
Interleave, duration : 40 ms (1.00 video frame)
Interleave, preload duration : 500 ms
Скриншот c названием фильма Скриншоты
Скачать

Скачать торрент!

Как скачивать? · Что такое торрент? · Рейтинг и ограничения

Сайт не распространяет и не хранит электронные версии произведений, а лишь предоставляет доступ к создаваемому пользователями каталогу ссылок на торрент-файлы, которые содержат только списки хеш-сумм

[Профиль] [ЛС]
Показать сообщения:    
Ответить на тему

Текущее время: Сегодня 13:52

Часовой пояс: GMT + 4



Вы не можете начинать темы
Вы не можете отвечать на сообщения
Вы не можете редактировать свои сообщения
Вы не можете удалять свои сообщения
Вы не можете голосовать в опросах
Вы не можете прикреплять файлы к сообщениям
Вы не можете скачивать файлы