Похищение ребенка / Inkaar (Радж Н. Сиппи / Raj N. Sippy) [1977, Индия, Детектив, DVDRip] MVO (ARS-studio)

Ответить на тему
 
Автор Сообщение

user ®

Стаж: 12 лет

Сообщений: 15092

Пост Пост: #1 от 26-Авг-2015 18:51

[Цитировать]

Похищение ребенка / Inkaar
Страна: Индия
Жанр: Детектив
Год выпуска: 1977
Продолжительность: 02:14:23
Перевод: Профессиональный (многоголосый закадровый) ARS-studio
Cубтитры: нет
Режиссер: Радж Н. Сиппи / Raj N. Sippy
В ролях: Винод Кханна, Видья Синха, Шрирам Лагу, Садху Мехер, Амджад Кхан, Лили Чакраварти, Мастер Раджеш, Бхарат Капур, Раджу Шреста
Описание: Вечером, когда Харидас Чоудхэри устроил вечеринку, чтобы отпраздновать юбилей свадьбы, ему позвонили по телефону и, потребовав выкуп, сообщили, что его десятилетний сын Гудди похищен. Семья была в панике, но когда Гудди вернулся после игры в саду, все успокоились и, смеясь, восприняли это как плохую шутку. Но вскоре стало известно о похищении сына водителя, Банси, такого же возраста и комплекции, что и Гудди.
Доп. информация: Перевод: ARS-studio
Роли озвучивали: Роман Никитин, Сергей Нестеров и Юлия Мен
Сэмпл: http://multi-up.com/1063831
Качество видео: DVDRip
Формат видео: AVI
Видео: DivX Codec 6.2.2, 704x528 (1.33:1), 23.976 fps, 1796 kbps avg
Аудио: AC3 Dolby Digital, 48 kHz, 3/2 (L,C,R,l,r) + LFE ch, 384 kbps
MediaInfo
General
Complete name : F:\Pohishenie.Rebenka.1977.DivX.DVDRip.avi
Format : AVI
Format/Info : Audio Video Interleave
Format profile : OpenDML
File size : 2.05 GiB
Duration : 2h 14mn
Overall bit rate : 2 188 Kbps
Writing application : VirtualDubMod 1.5.4.1 (build 2178/release)
Writing library : VirtualDubMod build 2178/release
Video
ID : 0
Format : MPEG-4 Visual
Format settings, BVOP : Yes
Format settings, QPel : No
Format settings, GMC : No warppoints
Format settings, Matrix : Default (H.263)
Muxing mode : Packed bitstream
Codec ID : DX50
Codec ID/Hint : DivX 5
Duration : 2h 14mn
Bit rate : 1 795 Kbps
Width : 704 pixels
Height : 528 pixels
Display aspect ratio : 4/3
Frame rate : 23.976 fps
Resolution : 24 bits
Colorimetry : 4:2:0
Scan type : Progressive
Bits/(Pixel*Frame) : 0.201
Stream size : 1.68 GiB (82%)
Writing library : DivX 6.2.2 (UTC 2006-04-26)
Audio
ID : 1
Format : AC-3
Format/Info : Audio Coding 3
Codec ID : 2000
Duration : 2h 14mn
Bit rate mode : Constant
Bit rate : 384 Kbps
Channel(s) : 6 channels
Channel positions : Front: L C R, Surround: L R, LFE
Sampling rate : 48.0 KHz
Stream size : 369 MiB (18%)
Alignment : Split accross interleaves
Interleave, duration : 96 ms (2.30 video frames)
Interleave, preload duration : 96 ms
Language : Russian
Скриншоты
Скачать

Скачать торрент! Похищение ребенка / Inkaar (Радж Н. Сиппи / Raj N. Sippy) [1977, Индия, Детектив, DVDRip] MVO (ARS-studio)

Как скачивать? · Что такое торрент? · Рейтинг и ограничения

Сайт не распространяет и не хранит электронные версии произведений, а лишь предоставляет доступ к создаваемому пользователями каталогу ссылок на торрент-файлы, которые содержат только списки хеш-сумм

[Профиль] [ЛС]
Показать сообщения:    
Ответить на тему

Текущее время: Сегодня 05:54

Часовой пояс: GMT + 4



Вы не можете начинать темы
Вы не можете отвечать на сообщения
Вы не можете редактировать свои сообщения
Вы не можете удалять свои сообщения
Вы не можете голосовать в опросах
Вы не можете прикреплять файлы к сообщениям
Вы не можете скачивать файлы