Форсаж 7 / Furious 7 (Джеймс Ван / James Wan) [2015, США, Боевик, триллер, криминал, BDRip] [Театральная версия / Theatrical cut] Dub

Ответить на тему
 
Автор Сообщение

user ®

Стаж: 7 лет 7 месяцев

Сообщений: 20008

Пост Пост: #1 от 26-Авг-2015 18:51

[Цитировать]

Форсаж 7 / Furious 7 / Театральная Версия / Theatrical Cut
Страна: США
Жанр: Боевик, триллер, криминал
Год выпуска: 2015
Продолжительность: 02:17:19
Перевод: Профессиональный (дублированный)
Cубтитры: нет
Режиссер: Джеймс Ван / James Wan
В ролях: Вин Дизель, Дуэйн Джонсон, Джейсон Стэйтем, Пол Уокер, Тайриз Гибсон, Лудакрис, Тони Джаа, Лукас Блэк, Мишель Родригес, Курт Расселл, Эльза Патаки, Джордана Брюстер, Натали Эммануэль, Галь Гадот, Джон Бразертон, Джимон Хонсу, Ноэль Гульеми, Али Фазал, Санг Кенг, Ронда Роуси, Гентри Уайт, Игги Азалия, Джон Ли Броди, Анна Колвелл, Виктор Эрнандез, Стив Култер, Роберт Пралго, Хорхе Феррагут, Бенжамин Бланкеншип
Описание: Они покорили Токио и Рио, Лос-Анджелес и Лондон. Но мир больше не играет по их правилам. Зной арабских пустынь, неприлично высокие небоскребы, миллионы долларов на колесах и очень, очень знаменитый злодей. Скорость не знает границ.
Сэмпл: http://sendfile.su/1148946
Качество видео: BDRip
Формат видео: AVI
Видео: 720x304 (2.35:1), 23.976 fps, XviD build 73 ~1818 kbps, 0.346 bit/pixel
Аудио: 48 kHz, AC3 Dolby Digital, 3/2 (L,C,R,l,r) + LFE ch, ~448 kbps
MediaInfo
Format : AVI
Format/Info : Audio Video Interleave
Format profile : OpenDML
File size : 2.19 GiB
Duration : 2h 17mn
Overall bit rate : 2 278 Kbps
Writing application : VirtualDubModRus 1.5.10.2 (build 2542/release)
Writing library : VirtualDubMod build 2542/release
Video
ID : 0
Format : MPEG-4 Visual
Format profile : Advanced Simple@L5
Format settings, BVOP : 1
Format settings, QPel : No
Format settings, GMC : No warppoints
Format settings, Matrix : Custom
Codec ID : XVID
Codec ID/Hint : XviD
Duration : 2h 17mn
Bit rate : 1 818 Kbps
Width : 720 pixels
Height : 304 pixels
Display aspect ratio : 2.35:1
Frame rate : 23.976 fps
Color space : YUV
Chroma subsampling : 4:2:0
Bit depth : 8 bits
Scan type : Progressive
Compression mode : Lossy
Bits/(Pixel*Frame) : 0.346
Stream size : 1.74 GiB (80%)
Writing library : XviD 73
Audio
ID : 1
Format : AC-3
Format/Info : Audio Coding 3
Mode extension : CM (complete main)
Format settings, Endianness : Big
Codec ID : 2000
Duration : 2h 17mn
Bit rate mode : Constant
Bit rate : 448 Kbps
Channel(s) : 6 channels
Channel positions : Front: L C R, Side: L R, LFE
Sampling rate : 48.0 KHz
Bit depth : 16 bits
Compression mode : Lossy
Stream size : 440 MiB (20%)
Alignment : Split accross interleaves
Interleave, duration : 42 ms (1.00 video frame)
Interleave, preload duration : 500 ms
Скриншот c названием фильма Скриншоты
Скачать

Скачать торрент!

Как скачивать? · Что такое торрент? · Рейтинг и ограничения

Сайт не распространяет и не хранит электронные версии произведений, а лишь предоставляет доступ к создаваемому пользователями каталогу ссылок на торрент-файлы, которые содержат только списки хеш-сумм

[Профиль] [ЛС]
Показать сообщения:    
Ответить на тему

Текущее время: Сегодня 20:12

Часовой пояс: GMT + 4



Вы не можете начинать темы
Вы не можете отвечать на сообщения
Вы не можете редактировать свои сообщения
Вы не можете удалять свои сообщения
Вы не можете голосовать в опросах
Вы не можете прикреплять файлы к сообщениям
Вы не можете скачивать файлы