Киллер Джо / Killer Joe (Уильям Фридкин / William Friedkin) [2011, США, триллер, драма, комедия, криминал, BDRip 720p] Dub (R5) + Original Eng + Sub (Rus,Eng)

Ответить на тему
 
Автор Сообщение

user ®

Стаж: 7 лет 7 месяцев

Сообщений: 20008

Пост Пост: #1 от 26-Авг-2015 00:18

[Цитировать]

Киллер Джо / Killer Joe
Страна: США
Студия: ANA Media, Voltage Pictures, Worldview Entertainment
Жанр: триллер, драма, комедия, криминал
Год выпуска: 2011
Продолжительность: 01:42:20
Перевод: Профессиональный (дублированный) R5
Cубтитры: русские, английские
Оригинальная аудиодорожка: английский
Режиссер: Уильям Фридкин / William Friedkin
В ролях: Мэттью МакКонахи, Эмиль Хирш, Джуно Темпл, Томас Хейден Чёрч, Джина Гершон, Марк Маколей, Грэйлен Брайант Бэнкс, Кэрол Саттон, Дэнни Эппер, Джефф Галпин
Описание: Фильм рассказывает о брате и сестре, которые замышляют убийство матери, чтобы получить деньги по страховке и по этому случаю они нанимают «Киллера Джо» Купера — копа и наемного убийцу. Экранизация по произведению Трэйси Леттс.

Тип релиза: BDRip 720p
Контейнер: MKV
Видео: MPEG-4 AVC, High Profile 4.1, 1280x694, 1.85:1, 6112 kbps, 23,976 fps
Аудио 1: русский: AC3, 5.1, 48 kHz, 448 kbps | дубляж
Аудио 2: английский: DTS, 5.1, 48 kHz, 1509 kbps | оригинал
Формат субтитров: softsub (SRT)
Сэмпл MediaInfo
General
Unique ID : 241097381669919788580956176094101445189 (0xB561AAAC023F5B6BADE8F3E271B31A45)
Complete name : Killer.Dzho.2011.D.BDRip.720p.mkv
Format : Matroska
Format version : Version 2
File size : 5.77 GiB
Duration : 1h 42mn
Overall bit rate : 8 071 Kbps
Movie name : IRONCLUB
Encoded date : UTC 2013-03-20 11:09:29
Writing application : mkvmerge v5.2.0 ('I can't explain') built on Dec 18 2011 18:12:03
Writing library : libebml v1.2.3 + libmatroska v1.3.0
Video
ID : 1
Format : AVC
Format/Info : Advanced Video Codec
Format profile : High@L4.1
Format settings, CABAC : Yes
Format settings, ReFrames : 9 frames
Codec ID : V_MPEG4/ISO/AVC
Duration : 1h 42mn
Bit rate : 6 112 Kbps
Width : 1 280 pixels
Height : 694 pixels
Display aspect ratio : 1.85:1
Frame rate mode : Constant
Frame rate : 23.976 fps
Color space : YUV
Chroma subsampling : 4:2:0
Bit depth : 8 bits
Scan type : Progressive
Bits/(Pixel*Frame) : 0.287
Stream size : 4.26 GiB (74%)
Title : Killer.Joe.2011.720p.BluRay.DTS.x264-HiDt
Writing library : x264 core 128 r2216 198a7ea
Encoding settings : cabac=1 / ref=9 / deblock=1:-3:-2 / analyse=0x3:0x113 / me=tesa / subme=11 / psy=1 / psy_rd=0.99:0.00 / mixed_ref=1 / me_range=32 / chroma_me=1 / trellis=2 / 8x8dct=1 / cqm=0 / deadzone=21,11 / fast_pskip=0 / chroma_qp_offset=-2 / threads=12 / lookahead_threads=2 / sliced_threads=0 / nr=0 / decimate=1 / interlaced=0 / bluray_compat=0 / constrained_intra=0 / bframes=6 / b_pyramid=2 / b_adapt=2 / b_bias=0 / direct=3 / weightb=1 / open_gop=0 / weightp=2 / keyint=240 / keyint_min=23 / scenecut=40 / intra_refresh=0 / rc_lookahead=40 / rc=2pass / mbtree=1 / bitrate=6112 / ratetol=1.0 / qcomp=0.67 / qpmin=0 / qpmax=69 / qpstep=4 / cplxblur=20.0 / qblur=0.5 / ip_ratio=1.40 / aq=1:0.90
Language : English
Default : Yes
Forced : Yes
Audio #1
ID : 2
Format : AC-3
Format/Info : Audio Coding 3
Mode extension : CM (complete main)
Format settings, Endianness : Big
Codec ID : A_AC3
Duration : 1h 42mn
Bit rate mode : Constant
Bit rate : 448 Kbps
Channel(s) : 6 channels
Channel positions : Front: L C R, Side: L R, LFE
Sampling rate : 48.0 KHz
Compression mode : Lossy
Stream size : 328 MiB (6%)
Title : DD 5.1 @ 448 kbps - Dub, R5
Language : Russian
Default : Yes
Forced : Yes
Audio #2
ID : 3
Format : DTS
Format/Info : Digital Theater Systems
Mode : 16
Format settings, Endianness : Big
Codec ID : A_DTS
Duration : 1h 42mn
Bit rate mode : Constant
Bit rate : 1 509 Kbps
Channel(s) : 6 channels
Channel positions : Front: L C R, Side: L R, LFE
Sampling rate : 48.0 KHz
Bit depth : 24 bits
Compression mode : Lossy
Stream size : 1.08 GiB (19%)
Title : DTS 5.1 @ 1536 kbps
Language : English
Default : No
Forced : No
Text #1
ID : 4
Format : UTF-8
Codec ID : S_TEXT/UTF8
Codec ID/Info : UTF-8 Plain Text
Language : Russian
Default : No
Forced : No
Text #2
ID : 5
Format : UTF-8
Codec ID : S_TEXT/UTF8
Codec ID/Info : UTF-8 Plain Text
Language : English
Default : No
Forced : No
Menu
00:00:00.000 : en:Chapter 01
00:05:22.530 : en:Chapter 02
00:11:46.288 : en:Chapter 03
00:12:40.968 : en:Chapter 04
00:20:10.209 : en:Chapter 05
00:25:42.040 : en:Chapter 06
00:30:17.524 : en:Chapter 07
00:33:37.557 : en:Chapter 08
00:40:12.618 : en:Chapter 09
00:46:02.634 : en:Chapter 10
00:51:38.678 : en:Chapter 11
00:55:13.852 : en:Chapter 12
01:00:56.027 : en:Chapter 13
01:06:22.895 : en:Chapter 14
01:10:40.986 : en:Chapter 15
01:12:07.156 : en:Chapter 16
01:15:33.362 : en:Chapter 17
01:20:32.953 : en:Chapter 18
01:31:05.585 : en:Chapter 19
01:37:55.870 : en:Chapter 20
Скриншоты
Скачать

Скачать торрент!

Как скачивать? · Что такое торрент? · Рейтинг и ограничения

Сайт не распространяет и не хранит электронные версии произведений, а лишь предоставляет доступ к создаваемому пользователями каталогу ссылок на торрент-файлы, которые содержат только списки хеш-сумм

[Профиль] [ЛС]
Показать сообщения:    
Ответить на тему

Текущее время: Сегодня 12:12

Часовой пояс: GMT + 4



Вы не можете начинать темы
Вы не можете отвечать на сообщения
Вы не можете редактировать свои сообщения
Вы не можете удалять свои сообщения
Вы не можете голосовать в опросах
Вы не можете прикреплять файлы к сообщениям
Вы не можете скачивать файлы