Великая битва / Maha-Sangram (Мукул Ананд / Mukul Anand) [1990, Индия, Боевик, драма, мелодрама, криминал, DVDRip] VO

Ответить на тему
 
Автор Сообщение

user ®

Стаж: 12 лет

Сообщений: 15092

Пост Пост: #1 от 25-Авг-2015 11:54

[Цитировать]

Великая битва / Maha-Sangram
Страна: Индия
Жанр: Боевик, драма, мелодрама, криминал
Год выпуска: 1990
Продолжительность: 02:30:10
Перевод: Одноголосый закадровый
Cубтитры: нет
Режиссер: Мукул Ананд / Mukul Anand
В ролях: Винод Кханна, Говинда, Мадхури Диксит, Амджад Кхан, Киран Кумар, Адитья Панчоли, Шакти Капур, Сону Валия, Гульшан Гровер, Ифтекхар
Описание: В основе фильма любовь двух юных влюблённых, принадлежащих к враждующим кланам. Семья девушки более могущественна и жестока. Много крови пролилось, много людей погибло прежде чем герои и их близкие поняли, что самое главное в жизни — любовь!
Сэмпл: http://multi-up.com/1063727
Качество видео: DVDRip
Формат видео: AVI
Видео: XviD build 47, 544x256 (2.13:1), 29.970 fps, 848 kbps avg
Аудио: AC3 Dolby Digital, 48 kHz, 2/0 (L,R) ch, 192 kbps
MediaInfo
General
Complete name : F:\Velikaya.bitva.1990.DVDRip.avi
Format : AVI
Format/Info : Audio Video Interleave
File size : 1.10 GiB
Duration : 2h 30mn
Overall bit rate : 1 051 Kbps
Writing application : VirtualDubMod 1.5.10.2 (build 2540/release)
Writing library : VirtualDubMod build 2540/release
Video
ID : 0
Format : MPEG-4 Visual
Format profile : AdvancedSimple@L5
Format settings, BVOP : Yes
Format settings, QPel : No
Format settings, GMC : No warppoints
Format settings, Matrix : Custom
Codec ID : XVID
Codec ID/Hint : XviD
Duration : 2h 30mn
Bit rate : 848 Kbps
Width : 544 pixels
Height : 256 pixels
Display aspect ratio : 2.2
Frame rate : 29.970 fps
Resolution : 24 bits
Colorimetry : 4:2:0
Scan type : Progressive
Bits/(Pixel*Frame) : 0.203
Stream size : 911 MiB (81%)
Writing library : XviD 1.2.0.dev47 (UTC 2006-11-01)
Audio
ID : 1
Format : AC-3
Format/Info : Audio Coding 3
Codec ID : 2000
Duration : 2h 29mn
Bit rate mode : Constant
Bit rate : 192 Kbps
Channel(s) : 2 channels
Channel positions : L R
Sampling rate : 48.0 KHz
Stream size : 206 MiB (18%)
Alignment : Split accross interleaves
Interleave, duration : 33 ms (1.00 video frame)
Interleave, preload duration : 500 ms
Скриншоты
Скачать

Скачать торрент! Великая битва / Maha-Sangram (Мукул Ананд / Mukul Anand) [1990, Индия, Боевик, драма, мелодрама, криминал, DVDRip] VO

Как скачивать? · Что такое торрент? · Рейтинг и ограничения

Сайт не распространяет и не хранит электронные версии произведений, а лишь предоставляет доступ к создаваемому пользователями каталогу ссылок на торрент-файлы, которые содержат только списки хеш-сумм

[Профиль] [ЛС]
Показать сообщения:    
Ответить на тему

Текущее время: Сегодня 14:39

Часовой пояс: GMT + 4



Вы не можете начинать темы
Вы не можете отвечать на сообщения
Вы не можете редактировать свои сообщения
Вы не можете удалять свои сообщения
Вы не можете голосовать в опросах
Вы не можете прикреплять файлы к сообщениям
Вы не можете скачивать файлы