Сладостные воспоминания / Ninaithale Inikkum (К. Балачандер / K. Balachander) [1979, Индия, Мелодрама, драма, DVDRip-AVC] VO (Nastia) + Sub Rus (на песни)

Ответить на тему
 
Автор Сообщение

user ®

Стаж: 12 лет

Сообщений: 15092

Пост Пост: #1 от 24-Авг-2015 23:27

[Цитировать]

Сладостные воспоминания / Ninaithale Inikkum
Страна: Индия
Жанр: Мелодрама, драма
Год выпуска: 1979
Продолжительность: 02:24:10
Перевод: Одноголосый закадровый Nastia
Cубтитры: русские (только на тексты песен)
Режиссер: К. Балачандер / K. Balachander
В ролях: Камал Хасан, Ранджникант, Джая Прада, Гита, Накул, Сарат Шарат Бабу, Нараян Рао, С.В. Шекхар, Джаясудха
Описание: Главный герой, солист музыкальной группы, приезжает на гастроли в Сингапур. Tам он встречает свою любовь, но узнает что девушка смертельно больна...
Доп. информация:
Перевод субтитров larisa_k (Спасибо!)
Рип, перевод песен: керелис (Спасибо!)
Озвучка: Nastia (Спасибо!)
Сведение звука: pca1962 (Спасибо!)
Сэмпл: http://multi-up.com/1063633
Качество видео: DVDRip-AVC
Формат видео: MKV
Видео: 720x544 (1.324:1), 25.686 fps, AVC, ~ 1728 Kbps, 0.172 bits/pixel
Аудио: Русский, 48 KHz, АС3, 2 ch, 192 Kbps
MediaInfo
General
Complete name : F:\Sladostnye.vospominaniya.1979.DVDRip.x264.BWTorrents.mkv
Format : Matroska
File size : 1.97 GiB
Duration : 2h 24mn
Overall bit rate : 1 959 Kbps
Encoded date : UTC 2015-08-25 02:35:32
Writing application : mkvmerge v6.0.0 ('Coming Up For Air') built on Jan 20 2013 09:52:00
Writing library : libebml v1.3.0 + libmatroska v1.4.0
Video
ID : 1
Format : AVC
Format/Info : Advanced Video Codec
Format profile : High@L3.1
Format settings, CABAC : Yes
Format settings, ReFrames : 7 frames
Muxing mode : Container profile=Unknown@3.1
Codec ID : V_MPEG4/ISO/AVC
Duration : 2h 22mn
Bit rate : 1 728 Kbps
Nominal bit rate : 1 765 Kbps
Width : 720 pixels
Height : 544 pixels
Display aspect ratio : 4/3
Frame rate mode : Variable
Frame rate : 25.686 fps
Resolution : 24 bits
Colorimetry : 4:2:0
Scan type : Progressive
Bits/(Pixel*Frame) : 0.172
Stream size : 1.72 GiB (87%)
Writing library : x264 core 112
Encoding settings : cabac=1 / ref=7 / deblock=1:0:0 / analyse=0x3:0x113 / me=umh / subme=7 / psy=1 / psy_rd=1.00:0.00 / mixed_ref=1 / me_range=16 / chroma_me=1 / trellis=1 / 8x8dct=1 / cqm=0 / deadzone=21,11 / fast_pskip=1 / chroma_qp_offset=-2 / threads=3 / sliced_threads=0 / nr=0 / decimate=1 / interlaced=0 / constrained_intra=0 / bframes=3 / b_pyramid=2 / b_adapt=2 / b_bias=0 / direct=1 / weightb=1 / open_gop=0 / weightp=2 / keyint=300 / keyint_min=25 / scenecut=40 / intra_refresh=0 / rc_lookahead=50 / rc=2pass / mbtree=1 / bitrate=1765 / ratetol=1.0 / qcomp=0.60 / qpmin=3 / qpmax=51 / qpstep=4 / cplxblur=20.0 / qblur=0.5 / ip_ratio=1.40 / aq=1:1.00
Audio
ID : 2
Format : AC-3
Format/Info : Audio Coding 3
Codec ID : A_AC3
Duration : 2h 24mn
Bit rate mode : Constant
Bit rate : 192 Kbps
Channel(s) : 2 channels
Channel positions : L R
Sampling rate : 48.0 KHz
Stream size : 198 MiB (10%)
Title : Ninaithale Inikkum
Language : Russian
Text
ID : 3
Format : UTF-8
Codec ID : S_TEXT/UTF8
Codec ID/Info : UTF-8 Plain Text
Title : ~ на песни ~
Language : Russian
Menu
00:00:00.000 : en:Chapter 1
00:05:10.009 : en:Chapter 2
00:11:32.758 : en:Chapter 3
00:16:48.307 : en:Chapter 4
00:19:52.232 : en:Chapter 5
00:30:57.021 : en:Chapter 6
00:34:28.266 : en:Chapter 7
00:38:47.024 : en:Chapter 8
00:42:02.978 : en:Chapter 9
00:44:55.534 : en:Chapter 10
00:50:14.845 : en:Chapter 11
00:52:18.852 : en:Chapter 12
00:53:45.055 : en:Chapter 13
00:57:06.806 : en:Chapter 14
00:58:54.656 : en:Chapter 15
01:02:44.698 : en:Chapter 16
01:09:07.322 : en:Chapter 17
01:14:01.891 : en:Chapter 18
01:19:31.004 : en:Chapter 19
01:26:24.934 : en:Chapter 20
01:31:40.045 : en:Chapter 21
01:38:32.181 : en:Chapter 22
01:43:50.641 : en:Chapter 23
01:49:11.954 : en:Chapter 24
01:57:50.355 : en:Chapter 25
02:01:27.756 : en:Chapter 26
02:06:44.338 : en:Chapter 27
02:13:33.422 : en:Chapter 28
02:18:34.139 : en:Chapter 29
Скриншоты
Скачать

Скачать торрент! Сладостные воспоминания / Ninaithale Inikkum (К. Балачандер / K. Balachander) [1979, Индия, Мелодрама, драма, DVDRip-AVC] VO (Nastia) + Sub Rus (на песни)

Как скачивать? · Что такое торрент? · Рейтинг и ограничения

Сайт не распространяет и не хранит электронные версии произведений, а лишь предоставляет доступ к создаваемому пользователями каталогу ссылок на торрент-файлы, которые содержат только списки хеш-сумм

[Профиль] [ЛС]
Показать сообщения:    
Ответить на тему

Текущее время: Сегодня 11:17

Часовой пояс: GMT + 4



Вы не можете начинать темы
Вы не можете отвечать на сообщения
Вы не можете редактировать свои сообщения
Вы не можете удалять свои сообщения
Вы не можете голосовать в опросах
Вы не можете прикреплять файлы к сообщениям
Вы не можете скачивать файлы