Озеро страха: Анаконда / Lake Placid vs. Anaconda (А.Б. Стоун / A.B. Stone) [2015, США, ужасы, фантастика, боевик, WEB-DLRip] MVO (iTunes)

Ответить на тему
 
Автор Сообщение

user ®

Стаж: 7 лет 7 месяцев

Сообщений: 20008

Пост Пост: #1 от 24-Авг-2015 23:27

[Цитировать]

Озеро страха: Анаконда / Lake Placid vs. Anaconda
Страна: США
Жанр: ужасы, фантастика, боевик
Год выпуска: 2015
Продолжительность: 01:31:35
Перевод: Профессиональный (многоголосый закадровый) iTunes
Cубтитры: нет
Оригинальная аудиодорожка: нет
Режиссер: А.Б. Стоун / A.B. Stone
В ролях: Корин Немек, Янси Батлер, Стивен Биллингтон, Скай Лоури, Оливер Уолкер, Али Эгил, Анабель Райт, Лаура Дэйл, Джорджина Филиппс, Найджел Барбер, Роберт Энглунд
Описание: Гигантский аллигатор хочет сразиться с не менее гигантской Анакондой. Городской шериф должен найти способ уничтожить двух монстров, прежде чем они уничтожат весь город.
Сэмпл: http://multi-up.com/1063658
Качество видео: WEB-DLRip
Формат видео: AVI
Видео: Xvid 720x400 23.98fps 1 745 Kbps
Аудио: Dolby AC3 48000Hz 6ch 384kbps
MediaInfo
Format : AVI
Format/Info : Audio Video Interleave
File size : 1.37 GiB
Duration : 1h 31mn
Overall bit rate : 2 138 Kbps
Writing application : VirtualDubMod 1.5.10.3 | www.virtualdub-fr.org || (build 2550/release)
Writing library : VirtualDubMod build 2550/release
Video
ID : 0
Format : MPEG-4 Visual
Format profile : Advanced Simple@L5
Format settings, BVOP : Yes
Format settings, QPel : No
Format settings, GMC : No warppoints
Format settings, Matrix : Default (MPEG)
Codec ID : XVID
Codec ID/Hint : XviD
Duration : 1h 31mn
Bit rate : 1 745 Kbps
Width : 720 pixels
Height : 400 pixels
Display aspect ratio : 16:9
Frame rate : 23.976 fps
Resolution : 8 bits
Colorimetry : 4:2:0
Scan type : Progressive
Bits/(Pixel*Frame) : 0.253
Stream size : 1.12 GiB (82%)
Writing library : XviD 1.2.1 (UTC 2008-12-04)
Audio
ID : 1
Format : AC-3
Format/Info : Audio Coding 3
Codec ID : 2000
Duration : 1h 31mn
Bit rate mode : Constant
Bit rate : 384 Kbps
Channel(s) : 6 channels
Channel positions : Front: L C R, Surround: L R, LFE
Sampling rate : 48.0 KHz
Stream size : 252 MiB (18%)
Alignment : Split accross interleaves
Interleave, duration : 42 ms (1.00 video frame)
Interleave, preload duration : 500 ms
Скриншот c названием фильма Скриншоты
Скачать

Скачать торрент!

Как скачивать? · Что такое торрент? · Рейтинг и ограничения

Сайт не распространяет и не хранит электронные версии произведений, а лишь предоставляет доступ к создаваемому пользователями каталогу ссылок на торрент-файлы, которые содержат только списки хеш-сумм

[Профиль] [ЛС]
Показать сообщения:    
Ответить на тему

Текущее время: Сегодня 19:56

Часовой пояс: GMT + 4



Вы не можете начинать темы
Вы не можете отвечать на сообщения
Вы не можете редактировать свои сообщения
Вы не можете удалять свои сообщения
Вы не можете голосовать в опросах
Вы не можете прикреплять файлы к сообщениям
Вы не можете скачивать файлы