Третий этаж / Teesri Manzil (Виджай Ананд / Vijay Anand) [1966, Индия, Мелодрама, триллер, комедия, детектив, DVDRip] VO (Юлия Семыкина) + Original + Sub Rus

Ответить на тему
 
Автор Сообщение

user ®

Стаж: 12 лет

Сообщений: 15092

Пост Пост: #1 от 23-Авг-2015 22:42

[Цитировать]

Третий этаж / Teesri Manzil--
Страна: Индия
Жанр: Мелодрама, триллер, комедия, детектив
Год выпуска: 1966
Продолжительность: 02:23:46
Перевод: Oдноголосый закадровый
Перевод субтитров: kasmevaade
Озвучка: Юлия Семыкина
Cубтитры: Русские (на песни)
Оригинальная аудиодорожка: хинди--Режиссер: Виджай Ананд / Vijay Anand--В ролях: Шамми Капур, Аша Парекх, Хелен, Премнатх, Прем Чопра, Ифтекхар, Радж Мехра, Лакшми Чхая, Нита, Сабина, Салим Кхан, Рашид Кхан, Рам Автар--Описание: Роки, работающий музыкантом в отеле, находит мертвую девушку Рупу, которая сбросилась с третьего этажа. Младшая сестра Рупы Сунита уверена, что девушка покончила с собой…--Релиз-группа:
Большое спасибо:
larisa_k, за предоставленные материалы
reza74, за DVD9 (без перевода)
verafisher2007, за рип
kasmevaade, за перевод субтитров
Юлия Семыкина, за озвучку фильма-Cведение звука: pca1962--Сэмпл: http://multi-up.com/1063518
Качество видео: DVDRip
Формат видео: AVI
Видео: XviD, 720x544, 29.97 fps, 1585 kbps
Аудио: AC3, 48 kHz, 2.0 (stereo), 192 kbps (русский)
Аудио 2: AC3, 48 kHz, 5.1 (6 ch), 384 kbps (хинди)
Формат субтитров: softsub (SRT)-
-
MediaInfo
General
Complete name : Tretij.Etazh.1966.DVDRip.XviD.BWTorrents.avi
Format : AVI
Format/Info : Audio Video Interleave
Format profile : OpenDML
File size : 2.19 GiB
Duration : 2h 23mn
Overall bit rate : 2 183 Kbps
Movie name : Tretij.Etazh.1966.
Director : mixing audio rus: pca1962
Genre : Melodrama/Thriller/Crime
Writing application : VirtualDubMod 1.5.10.2 (build 2540/release)
Original source form/Name : Movie
Video
ID : 0
Format : MPEG-4 Visual
Format profile : Advanced Simple@L5
Format settings, BVOP : 1
Format settings, QPel : No
Format settings, GMC : No warppoints
Format settings, Matrix : Custom
Codec ID : XVID
Codec ID/Hint : XviD
Duration : 2h 23mn
Bit rate : 1 585 Kbps
Width : 720 pixels
Height : 544 pixels
Display aspect ratio : 4:3
Frame rate : 29.970 fps
Color space : YUV
Chroma subsampling : 4:2:0
Bit depth : 8 bits
Scan type : Progressive
Compression mode : Lossy
Bits/(Pixel*Frame) : 0.135
Stream size : 1.59 GiB (73%)
Writing library : XviD 1.2.1 (UTC 2008-12-04)
Audio #1
ID : 1
Format : AC-3
Format/Info : Audio Coding 3
Mode extension : CM (complete main)
Format settings, Endianness : Big
Codec ID : 2000
Duration : 2h 23mn
Bit rate mode : Constant
Bit rate : 192 Kbps
Channel count : 2 channels
Channel positions : Front: L R
Sampling rate : 48.0 KHz
Bit depth : 16 bits
Compression mode : Lossy
Stream size : 197 MiB (9%)
Alignment : Split accross interleaves
Interleave, duration : 33 ms (1.00 video frame)
Interleave, preload duration : 500 ms
Audio #2
ID : 2
Format : AC-3
Format/Info : Audio Coding 3
Mode extension : CM (complete main)
Format settings, Endianness : Big
Codec ID : 2000
Duration : 2h 23mn
Bit rate mode : Constant
Bit rate : 384 Kbps
Channel count : 6 channels
Channel positions : Front: L C R, Side: L R, LFE
Sampling rate : 48.0 KHz
Bit depth : 16 bits
Compression mode : Lossy
Stream size : 395 MiB (18%)
Alignment : Split accross interleaves
Interleave, duration : 33 ms (1.00 video frame)
Interleave, preload duration : 500 ms

-
-Скриншот c названием фильма Скриншоты
Скачать

Скачать торрент! Третий этаж / Teesri Manzil (Виджай Ананд / Vijay Anand) [1966, Индия, Мелодрама, триллер, комедия, детектив, DVDRip] VO (Юлия Семыкина) + Original + Sub Rus

Как скачивать? · Что такое торрент? · Рейтинг и ограничения

Сайт не распространяет и не хранит электронные версии произведений, а лишь предоставляет доступ к создаваемому пользователями каталогу ссылок на торрент-файлы, которые содержат только списки хеш-сумм

[Профиль] [ЛС]
Показать сообщения:    
Ответить на тему

Текущее время: Сегодня 06:23

Часовой пояс: GMT + 4



Вы не можете начинать темы
Вы не можете отвечать на сообщения
Вы не можете редактировать свои сообщения
Вы не можете удалять свои сообщения
Вы не можете голосовать в опросах
Вы не можете прикреплять файлы к сообщениям
Вы не можете скачивать файлы