Дорога домой: Невероятное путешествие / Homeward Bound: The Incredible Journey (Дуэйн Данэм / Duwayne Dunham) [1993, США, драма, комедия, приключения, семейный, WEB-DL 720p] MVO (Видеосервис) + AVO (Горчаков) + Ukr + Original Eng + Sub Rus, Eng

Ответить на тему
 
Автор Сообщение

user ®

Стаж: 7 лет 7 месяцев

Сообщений: 20008

Пост Пост: #1 от 23-Авг-2015 22:42

[Цитировать]

Дорога домой: Невероятное путешествие / Homeward Bound: The Incredible Journey
«»
Год выпуска: 1993
Страна: США
Производство: Touchwood Pacific Partners 1, Walt Disney Pictures
Жанр: Драма, комедия, приключения, семейный
Продолжительность: 01:24:28
Перевод 1: Профессиональный (многоголосый закадровый) | Видеосервис
Перевод 2: Профессиональный (многоголосый закадровый) | iTunes
Перевод 3: Авторский (одноголосый закадровый) | Горчаков
Оригинальная аудиодорожка: Английский
Субтитры: Русские, английские
Режиссёр: Дуэйн Данэм
В ролях: Майкл Дж. Фокс, Салли Филд, Дон Амичи, Роберт Хэйс, Ким Грайст, Кевин Чевалия, Бендж Талл, Вероника Лорен, Джин Смарт, Дон Алдер и др.
Описание: Хозяева двух собак и очаровательной кошечки Сэсси, вынужденные на время уехать, отдают своих питомцев на ранчо друга. Через некоторое время животные, очутившиеся за сотни миль от любимого дома, начинают беспокоиться, не приключились ли у хозяев неприятности. Поразмыслив, весёлая троица решает самостоятельно добраться до дома и пускается в невероятно опасное путешествие по горам и пустыням...


Сэмпл
Качество: WEB-DL 720p
Формат: MKV
Видео: MPEG-4 AVC: ~4000 kbps / 1280x688 / 23.976 fps / 1.85:1
Аудио: Russian: AC3 / 5.1 / 48 kHz / 640 kbps | Видеосервис
Аудио: Russian: AAC / 2.0 / 48 kHz / 160 kbps | iTunes
Аудио: Russian: AC3 / 2.0 / 48 kHz / 192 kbps | Горчаков
Аудио: Ukrainian: AC3 / 2.0 / 48 kHz / 192 kbps | K1
Аудио: English: AC3 / 5.1 / 48 kHz / 384 kbps | Оригинальный
MediaInfoXP
GeneralUnique ID : 210343059912934332419502996667875939627 (0x9E3E998A65E3389DA6A833EC461F552B)Complete name : F:\Homeward.Bound.The.Incredible.Journey.1993.720p.WEB-DL.3xRus.Ukr.Eng.x264-iTunes.mkvFormat : MatroskaFormat version : Version 2File size : 3.28 GiBDuration : 1h 24mnOverall bit rate : 5 562 KbpsMovie name : Homeward Bound: The Incredible Journey (1993) - Release for HDCLUBEncoded date : UTC 2015-08-22 19:19:35Writing application : mkvmerge v3.4.0 ('Rapunzel') built on May 15 2010 09:38:20Writing library : libebml v0.8.0 + libmatroska v0.9.0
VideoID : 1Format : AVCFormat/Info : Advanced Video CodecFormat profile : High@L3.1Format settings, CABAC : NoFormat settings, ReFrames : 2 framesFormat settings, GOP : N=1Codec ID : V_MPEG4/ISO/AVCDuration : 1h 24mnWidth : 1 280 pixelsHeight : 688 pixelsDisplay aspect ratio : 1.85:1Frame rate mode : ConstantFrame rate : 23.976 fpsColor space : YUVChroma subsampling : 4:2:0Bit depth : 8 bitsScan type : ProgressiveTitle : Homeward Bound: The Incredible Journey (1993) - Release for HDCLUBLanguage : EnglishDefault : YesForced : NoColor range : LimitedColor primaries : BT.709Transfer characteristics : BT.709Matrix coefficients : BT.709
Audio #1ID : 2Format : AC-3Format/Info : Audio Coding 3Mode extension : CM (complete main)Format settings, Endianness : BigCodec ID : A_AC3Duration : 1h 24mnBit rate mode : ConstantBit rate : 640 KbpsChannel(s) : 6 channelsChannel positions : Front: L C R, Side: L R, LFESampling rate : 48.0 KHzCompression mode : LossyStream size : 387 MiB (12%)Title : AC3 5.1 @ 640 kbps - MVO, VideoserviceLanguage : RussianDefault : YesForced : No
Audio #2ID : 3Format : AACFormat/Info : Advanced Audio CodecFormat profile : LCCodec ID : A_AACDuration : 1h 24mnChannel(s) : 2 channelsChannel positions : Front: L RSampling rate : 48.0 KHzCompression mode : LossyTitle : AAC 2.0 @ 160 kbps - MVO, iTunesLanguage : RussianDefault : NoForced : No
Audio #3ID : 4Format : AC-3Format/Info : Audio Coding 3Mode extension : CM (complete main)Format settings, Endianness : BigCodec ID : A_AC3Duration : 1h 24mnBit rate mode : ConstantBit rate : 192 KbpsChannel(s) : 2 channelsChannel positions : Front: L RSampling rate : 48.0 KHzCompression mode : LossyStream size : 116 MiB (3%)Title : AC3 2.0 @ 192 kbps - AVO, V. GorchakovLanguage : RussianDefault : NoForced : No
Audio #4ID : 5Format : AC-3Format/Info : Audio Coding 3Mode extension : CM (complete main)Format settings, Endianness : BigCodec ID : A_AC3Duration : 1h 24mnBit rate mode : ConstantBit rate : 192 KbpsChannel(s) : 2 channelsChannel positions : Front: L RSampling rate : 48.0 KHzCompression mode : LossyStream size : 116 MiB (3%)Title : AC3 2.0 @ 192 kbps - MVO, K1Language : UkrainianDefault : NoForced : No
Audio #5ID : 6Format : AC-3Format/Info : Audio Coding 3Mode extension : CM (complete main)Format settings, Endianness : BigCodec ID : A_AC3Duration : 1h 24mnBit rate mode : ConstantBit rate : 384 KbpsChannel(s) : 6 channelsChannel positions : Front: L C R, Side: L R, LFESampling rate : 48.0 KHzCompression mode : LossyStream size : 232 MiB (7%)Title : AC3 5.1 @ 384 kbpsLanguage : EnglishDefault : NoForced : No
Text #1ID : 7Format : UTF-8Codec ID : S_TEXT/UTF8Codec ID/Info : UTF-8 Plain TextLanguage : RussianDefault : NoForced : No
Text #2ID : 8Format : UTF-8Codec ID : S_TEXT/UTF8Codec ID/Info : UTF-8 Plain TextLanguage : EnglishDefault : NoForced : No
Menu00:00:00.000 : en:100:00:17.000 : en:200:08:11.000 : en:300:12:44.000 : en:400:19:36.000 : en:500:30:17.000 : en:600:31:53.000 : en:700:38:36.000 : en:800:40:59.000 : en:900:47:30.000 : en:1000:49:25.000 : en:1100:51:14.000 : en:1200:56:55.000 : en:1301:02:32.000 : en:1401:09:39.000 : en:1501:14:19.000 : en:1601:19:20.000 : en:17
Скриншот с названием фильма Скриншоты
Скачать

Скачать торрент!

Как скачивать? · Что такое торрент? · Рейтинг и ограничения

Сайт не распространяет и не хранит электронные версии произведений, а лишь предоставляет доступ к создаваемому пользователями каталогу ссылок на торрент-файлы, которые содержат только списки хеш-сумм

[Профиль] [ЛС]
Показать сообщения:    
Ответить на тему

Текущее время: Сегодня 22:14

Часовой пояс: GMT + 4



Вы не можете начинать темы
Вы не можете отвечать на сообщения
Вы не можете редактировать свои сообщения
Вы не можете удалять свои сообщения
Вы не можете голосовать в опросах
Вы не можете прикреплять файлы к сообщениям
Вы не можете скачивать файлы