Мы всё ещё здесь / We Are Still Here (Тед Гейган / Ted Geoghegan) [2015, США, Ужасы, WEB-DLRip] DVO (МЕГАПЫХАРЬ и Элис)

Ответить на тему
 
Автор Сообщение

user ®

Стаж: 7 лет 7 месяцев

Сообщений: 20008

Пост Пост: #1 от 23-Авг-2015 16:30

[Цитировать]

Мы всё ещё здесь / We Are Still Here
Страна: США
Жанр: Ужасы
Год выпуска: 2015
Продолжительность: 01:23:25
Перевод: Любительский (двухголосый закадровый) МЕГАПЫХАРЬ и Элис
Cубтитры: нет
Оригинальная аудиодорожка: нет
Режиссер: Тед Гейган / Ted Geoghegan
В ролях: Барбара Крэмптон, Эндрю Сенсениг, Лиза Мари, Ларри Фесенден, Монте Маркэм, Сьюзэн Гибни, Майкл Патрик, Келси Дакота, Гай Гане, Элисса Бри
Описание: Одинокий старый дом в Англии просыпается каждые тридцать лет - и требует жертв.

Сэмпл: http://multi-up.com/1063394
Качество видео: WEB-DLRip
Формат видео: AVI
Видео: XviD, 640x272, 23.976 fps, 1034 Kbit/s
Аудио: AC3, 48.0 KHz, 2 канала, 192 kbit/s
MediaInfo
General
Complete name : C:\Documents and Settings\Admin.MICROSOF-C69A97\Рабочий стол\Ещё\We Are Still Here.avi
Format : AVI
Format/Info : Audio Video Interleave
File size : 737 MiB
Duration : 1h 23mn
Overall bit rate : 1 235 Kbps
Writing application : VirtualDubMod 1.5.10.2 (build 2540/release)
Writing library : VirtualDubMod build 2540/release
Video
ID : 0
Format : MPEG-4 Visual
Format profile : Advanced Simple@L5
Format settings, BVOP : 2
Format settings, QPel : No
Format settings, GMC : No warppoints
Format settings, Matrix : Default (H.263)
Muxing mode : Packed bitstream
Codec ID : XVID
Codec ID/Hint : XviD
Duration : 1h 23mn
Bit rate : 1 034 Kbps
Width : 640 pixels
Height : 272 pixels
Display aspect ratio : 2.35:1
Frame rate : 23.976 fps
Color space : YUV
Chroma subsampling : 4:2:0
Bit depth : 8 bits
Scan type : Progressive
Compression mode : Lossy
Bits/(Pixel*Frame) : 0.248
Stream size : 617 MiB (84%)
Writing library : XviD 66
Audio
ID : 1
Format : AC-3
Format/Info : Audio Coding 3
Mode extension : CM (complete main)
Format settings, Endianness : Big
Codec ID : 2000
Duration : 1h 23mn
Bit rate mode : Constant
Bit rate : 192 Kbps
Channel(s) : 2 channels
Channel positions : Front: L R
Sampling rate : 48.0 KHz
Bit depth : 16 bits
Compression mode : Lossy
Stream size : 115 MiB (16%)
Alignment : Split accross interleaves
Interleave, duration : 42 ms (1.00 video frame)
Interleave, preload duration : 500 ms
Скриншот c названием фильма Скриншоты Релиз от:
Скачать

Скачать торрент!

Как скачивать? · Что такое торрент? · Рейтинг и ограничения

Сайт не распространяет и не хранит электронные версии произведений, а лишь предоставляет доступ к создаваемому пользователями каталогу ссылок на торрент-файлы, которые содержат только списки хеш-сумм

[Профиль] [ЛС]
Показать сообщения:    
Ответить на тему

Текущее время: Сегодня 23:15

Часовой пояс: GMT + 4



Вы не можете начинать темы
Вы не можете отвечать на сообщения
Вы не можете редактировать свои сообщения
Вы не можете удалять свои сообщения
Вы не можете голосовать в опросах
Вы не можете прикреплять файлы к сообщениям
Вы не можете скачивать файлы