Не видать нам Париж как своих ушей / We\'ll Never Have Paris (Саймон Хелберг, Жослин Таун / Simon Helberg, Jocelyn Towne) [2014, США, мелодрама, комедия, BDRip 1080p] Dub (Line) + Sub Eng + Original Eng

Ответить на тему
 
Автор Сообщение

user ®

Стаж: 7 лет 7 месяцев

Сообщений: 20008

Пост Пост: #1 от 23-Авг-2015 13:24

[Цитировать]

Не видать нам Париж как своих ушей / We'll Never Have Paris
Страна: США
Студия: Bifrost Pictures, The Bridge Finance Company, E2B Capital, H3 Films, Marc Platt Productions, Palm-St
Жанр: Мелодрама, Комедия
Год выпуска: 2014
Продолжительность: 01:31:52
Перевод: Профессиональный (дублированный) (Line)
Cубтитры: английские
Оригинальная аудиодорожка: английский
Режиссер: Саймон Хелберг, Жослин Таун / Simon Helberg, Jocelyn Towne
В ролях: Саймон Хелберг, Мелани Лински, Закари Куинто, Джеффри Кантор, Эндрю Хант Гордон, Нэнси Марлоу Гордон, Мэгги Грэйс, Мередит Хагнер, Дэна Айви, Джудит Лайт
Описание: Сюжет разворачивается вокруг парня по имени Куин Берман, который сталкивается с кризисом среднего возраста после того, как его сотрудница признается ему в любви. Ситуация осложняется из-за того, что это произошло прямо перед тем, как Куин собрался делать предложение руки и сердца своей девушке Девон. Вскоре после этого Девон улетает в Париж, а когда Куин следует за ней, то узнает, что его девушка уже крутит роман с местным скрипачом.

Тип релиза: BDRip 1080p
Контейнер: MKV
Видео: AVC/H.264, 1920x1080, ~10400 kbps
Аудио: AC3, 2 ch, 192 kbps, CBR
Аудио 2: DTS, 6 ch, 1509 kbps, CBR (английский)
Формат субтитров: softsub (SRT)
MediaInfo
D:\Скаченное\We'll.Never.Have.Paris.2014.D.BDRip.1080p..mkv
General
Unique ID : 242111115979315171859472961547858893946 (0xB624E7A1D9230CFCA6F6B40510F85C7A)
Complete name : D:\Скаченное\We'll.Never.Have.Paris.2014.D.BDRip.1080p..mkv
Format : Matroska
Format version : Version 4 / Version 2
File size : 7.78 GiB
Duration : 1h 31mn
Overall bit rate : 12.1 Mbps
Movie name : Не видать нам Париж, как своих ушей / We'll Never Have Paris (2014)
Encoded date : UTC 2015-08-15 12:34:29
Writing application : mkvmerge v8.2.0 ('World of Adventure') 32bit
Writing library : libebml v1.3.1 + libmatroska v1.4.2
Attachements : cover.jpg
DURATION : 01:27:22.307000000
NUMBER_OF_FRAMES : 1023
NUMBER_OF_BYTES : 38021
_STATISTICS_WRITING_APP : mkvmerge v8.2.0 ('World of Adventure') 32bit
_STATISTICS_WRITING_DATE_UTC : 2015-08-15 12:34:29
_STATISTICS_TAGS : BPS DURATION NUMBER_OF_FRAMES NUMBER_OF_BYTES
Video #1
ID : 1
Format : AVC
Format/Info : Advanced Video Codec
Format profile : High@L4.1
Format settings, CABAC : Yes
Format settings, ReFrames : 4 frames
Codec ID : V_MPEG4/ISO/AVC
Duration : 1h 31mn
Bit rate : 10.4 Mbps
Width : 1 920 pixels
Height : 1 080 pixels
Display aspect ratio : 16:9
Frame rate mode : Constant
Frame rate : 23.976 fps
Color space : YUV
Chroma subsampling : 4:2:0
Bit depth : 8 bits
Scan type : Progressive
Bits/(Pixel*Frame) : 0.210
Stream size : 6.53 GiB (84%)
Writing library : x264 core 146 r2538 121396c
Encoding settings : cabac=1 / ref=4 / deblock=1:-3:-3 / analyse=0x3:0x113 / me=umh / subme=11 / psy=1 / psy_rd=1.05:0.00 / mixed_ref=1 / me_range=36 / chroma_me=1 / trellis=2 / 8x8dct=1 / cqm=0 / deadzone=21,11 / fast_pskip=0 / chroma_qp_offset=-2 / threads=12 / lookahead_threads=3 / sliced_threads=0 / nr=0 / decimate=0 / interlaced=0 / bluray_compat=0 / constrained_intra=0 / bframes=10 / b_pyramid=2 / b_adapt=2 / b_bias=0 / direct=3 / weightb=1 / open_gop=0 / weightp=2 / keyint=250 / keyint_min=23 / scenecut=40 / intra_refresh=0 / rc=2pass / mbtree=0 / bitrate=10421 / ratetol=1.0 / qcomp=0.60 / qpmin=0 / qpmax=69 / qpstep=4 / cplxblur=20.0 / qblur=0.5 / ip_ratio=1.40 / pb_ratio=1.30 / aq=1:0.60
Default : Yes
Forced : No
DURATION : 01:31:51.548000000
NUMBER_OF_FRAMES : 132145
NUMBER_OF_BYTES : 7177238361
_STATISTICS_WRITING_APP : mkvmerge v8.2.0 ('World of Adventure') 32bit
_STATISTICS_WRITING_DATE_UTC : 2015-08-15 12:34:29
_STATISTICS_TAGS : BPS DURATION NUMBER_OF_FRAMES NUMBER_OF_BYTES
Audio #2
ID : 2
Format : AC-3
Format/Info : Audio Coding 3
Mode extension : CM (complete main)
Format settings, Endianness : Big
Codec ID : A_AC3
Duration : 1h 31mn
Bit rate mode : Constant
Bit rate : 192 Kbps
Channel(s) : 2 channels
Channel positions : Front: L R
Sampling rate : 48.0 KHz
Bit depth : 16 bits
Compression mode : Lossy
Stream size : 126 MiB (2%)
Title : Дублированный, чистый звук
Language : Russian
Default : Yes
Forced : No
Audio #3
ID : 3
Format : DTS
Format/Info : Digital Theater Systems
Mode : 16
Format settings, Endianness : Big
Codec ID : A_DTS
Duration : 1h 31mn
Bit rate mode : Constant
Bit rate : 1 509 Kbps
Channel(s) : 6 channels
Channel positions : Front: L C R, Side: L R, LFE
Sampling rate : 48.0 KHz
Bit depth : 24 bits
Compression mode : Lossy
Stream size : 991 MiB (12%)
Language : English
Default : No
Forced : No
Text #4
ID : 4
Format : UTF-8
Codec ID : S_TEXT/UTF8
Codec ID/Info : UTF-8 Plain Text
Language : English
Default : No
Forced : No
Скриншоты
Скачать

Скачать торрент!

Как скачивать? · Что такое торрент? · Рейтинг и ограничения

Сайт не распространяет и не хранит электронные версии произведений, а лишь предоставляет доступ к создаваемому пользователями каталогу ссылок на торрент-файлы, которые содержат только списки хеш-сумм

[Профиль] [ЛС]
Показать сообщения:    
Ответить на тему

Текущее время: Сегодня 22:03

Часовой пояс: GMT + 4



Вы не можете начинать темы
Вы не можете отвечать на сообщения
Вы не можете редактировать свои сообщения
Вы не можете удалять свои сообщения
Вы не можете голосовать в опросах
Вы не можете прикреплять файлы к сообщениям
Вы не можете скачивать файлы