Я - мститель / Naan Sigappu Manithan (Тиру / Thiru) [2014, Индия, Драма, HDRip] MVO (Индия ТВ)

Ответить на тему
 
Автор Сообщение

user ®

Стаж: 12 лет

Сообщений: 15092

Пост Пост: #1 от 23-Авг-2015 04:09

[Цитировать]

Я - мститель / Naan Sigappu Manithan
Страна: Индия
Жанр: Драма
Год выпуска: 2014
Продолжительность: 02:33:20-Перевод: Профессиональный (многоголосый, закадровый) - т/к Индия ТВ
Cубтитры: Нет-Режиссер: Тиру / Thiru-В ролях: Вишал, Лакшми Менон, Джаяпракаш, Иния, Саранья Понваннан, Сундер Раму, Джаган и др.-Описание: "Люди хранят свои желания в сердце, а я их записал: заработать денег, дать отдых маме, перейти одному дорогу... Всего 10 подобных желаний. Почему я их записал? Меня зовут Индран." Почему он постоянно падает в обморок? Нет, он просто засыпает. От внезапного шума или сильных эмоций, на медицинском языке именуемое нарколепсией. Но у Индрана необычное заболевание, он всё слышит, даже когда спит. У него прекрасное образование, но кому оно нужно, если работник постоянно грохается на пол и засыпает. У него есть верные друзья, любящая мама. Одно из его желаний - увидеть ангела и влюбиться. Мира... Тот самый ангел.... Жизнь налаживается, болезнь уже не кажется чем-то пугающим. Но одна дождливая ночь навсегда изменила жизнь Индрана...- | --Качество видео: HDRip
Формат видео: AVI-Видео: 720x304 (2.37:1), 24.000 fps, XviD build 50 ~1221 kbps avg, 0.23 bit/pixel
Аудио: 48 kHz, MPEG Layer 3, 2 ch, ~128.00 kbps
-
Сэмпл-Релиз:
Рип и синхрон. звука: soso4eg- Скриншот с названием
-
Скриншоты
-
MI
General
Complete name : F:\INDIYA\Ya.Mstitel.2014.HDRip.XviD.BwTorrents-soso4eg.avi
Format : AVI
Format/Info : Audio Video Interleave
File size : 1.46 GiB
Duration : 2h 33mn
Overall bit rate : 1 359 Kbps
Movie name : Naan.Sigappu.Manithan.2014.HDRip.XviD.BwTorrents-soso4eg
Writing application : VirtualDubMod 1.5.10.2 (build 2540/release)
Writing library : VirtualDubMod build 2540/release
Video
ID : 0
Format : MPEG-4 Visual
Format profile : Advanced Simple@L5
Format settings, BVOP : 1
Format settings, QPel : No
Format settings, GMC : No warppoints
Format settings, Matrix : Default (MPEG)
Codec ID : XVID
Codec ID/Hint : XviD
Duration : 2h 33mn
Bit rate : 1 222 Kbps
Width : 720 pixels
Height : 304 pixels
Display aspect ratio : 2.35:1
Frame rate : 24.000 fps
Color space : YUV
Chroma subsampling : 4:2:0
Bit depth : 8 bits
Scan type : Progressive
Compression mode : Lossy
Bits/(Pixel*Frame) : 0.233
Stream size : 1.31 GiB (90%)
Writing library : XviD 1.2.1 (UTC 2008-12-04)
Audio
ID : 1
Format : MPEG Audio
Format version : Version 1
Format profile : Layer 3
Mode : Joint stereo
Mode extension : MS Stereo
Codec ID : 55
Codec ID/Hint : MP3
Duration : 2h 33mn
Bit rate mode : Constant
Bit rate : 128 Kbps
Channel(s) : 2 channels
Sampling rate : 48.0 KHz
Compression mode : Lossy
Stream size : 140 MiB (9%)
Alignment : Aligned on interleaves
Interleave, duration : 42 ms (1.00 video frame)
Interleave, preload duration : 504 ms
-
Скачать

Скачать торрент! Я - мститель / Naan Sigappu Manithan (Тиру / Thiru) [2014, Индия, Драма, HDRip] MVO (Индия ТВ)

Как скачивать? · Что такое торрент? · Рейтинг и ограничения

Сайт не распространяет и не хранит электронные версии произведений, а лишь предоставляет доступ к создаваемому пользователями каталогу ссылок на торрент-файлы, которые содержат только списки хеш-сумм

[Профиль] [ЛС]
Показать сообщения:    
Ответить на тему

Текущее время: Сегодня 01:55

Часовой пояс: GMT + 4



Вы не можете начинать темы
Вы не можете отвечать на сообщения
Вы не можете редактировать свои сообщения
Вы не можете удалять свои сообщения
Вы не можете голосовать в опросах
Вы не можете прикреплять файлы к сообщениям
Вы не можете скачивать файлы