Будь что будет / Сумасшедший медовый месяц / For Better or For Worse / Honeymoon Academy (Джин Квинтано / Gene Quintano) [1989, США, комедия, приключения, HDTV 1080i] DVO (НТВ+) + Original Eng

Ответить на тему
 
Автор Сообщение

user ®

Стаж: 7 лет 7 месяцев

Сообщений: 20008

Пост Пост: #1 от 23-Авг-2015 01:03

[Цитировать]

Будь что будет / For Better or For Worse- Страна: США
Студия: Fidelity Productions, Sarliu/Diamant, Trans World Entertainment (TWE)
Жанр: комедия, приключения
Год выпуска: 1989
Продолжительность: 01:29:47-Перевод: Профессиональный (двухголосый закадровый) НТВ+
Cубтитры: нет
Оригинальная аудиодорожка: английский-Режиссер: Джин Квинтано / Gene Quintano
В ролях: Ким Кэтролл, Кристофер Ли, Роберт Хэйс, Ли Тейлор-Янг, Чарльз Рокет, Лэнс Кинси, Дорис Робертс, Гордон Джамп, Джонатан Бэнкс, Джерри Лазарус...- | Релиз: -Описание: Любовь с первого взгляда поразила молодого человека по имени Шон и молодую девушку по имени Крис. И уже через несколько минут прозвучало предложение руки и сердца.
Крис была ошеломлена яростным натиском, но отваги ей не занимать: недаром она работала в туристском бюро, под вывеской которого скрывалась международная секретная спецслужба, занимающаяся поиском фальшивомонетчиков. Впрочем, этого Шон не знал и поэтому в момент свадьбы предвкушал прелести медового месяца в Испании. Крис, наконец-то, уволилась с надоевшей ей работы, и новоиспеченные супруги отправились за океан по путевке подаренной Крис коллегами по работе. Вместо отдыха ей предстоит передать чемодан с деньгами изготовителю клише для печати фальшивых долларов.-Семпл: http://sendfile.su/1148036-Тип релиза: HDTV 1080i
Контейнер: TS
Видео: 1920x1080i (16:9), 25.000 fps, AVC, ~6574 Kbps, 0.127 bits/pixel
Аудио 1: Русский, 48.0 KHz, MPEG-1 Audio layer 2, 2 ch, 192 kbps
Аудио 2: English, 48.0 KHz, MPEG-1 Audio layer 2, 2 ch, 192 kbps
MediaInfo
GeneralID : 1 (0x1)Complete name : For Better or For Worse 1989 MGMHD 1080i.rus.eng.tsFormat : MPEG-TSFile size : 4.59 GiBDuration : 1h 29mnOverall bit rate mode : VariableOverall bit rate : 7 324 KbpsMaximum Overall bit rate : 35.5 Mbps
VideoID : 4113 (0x1011)Menu ID : 1 (0x1)Format : AVCFormat/Info : Advanced Video CodecFormat profile : Main@L4Format settings, CABAC : YesFormat settings, ReFrames : 4 framesCodec ID : 27Duration : 1h 29mnBit rate : 6 574 KbpsWidth : 1 920 pixelsHeight : 1 080 pixelsDisplay aspect ratio : 16:9Frame rate : 25.000 fpsStandard : ComponentColor space : YUVChroma subsampling : 4:2:0Bit depth : 8 bitsScan type : InterlacedScan order : Top Field FirstBits/(Pixel*Frame) : 0.127Stream size : 4.12 GiB (90%)Color range : LimitedColor primaries : BT.709Transfer characteristics : BT.709Matrix coefficients : BT.709
Audio #1ID : 4352 (0x1100)Menu ID : 1 (0x1)Format : MPEG AudioFormat version : Version 1Format profile : Layer 2Codec ID : 4Duration : 1h 29mnBit rate mode : ConstantBit rate : 192 KbpsChannel(s) : 2 channelsSampling rate : 48.0 KHzCompression mode : LossyStream size : 123 MiB (3%)Language : Russian
Audio #2ID : 4353 (0x1101)Menu ID : 1 (0x1)Format : MPEG AudioFormat version : Version 1Format profile : Layer 2Codec ID : 4Duration : 1h 29mnBit rate mode : ConstantBit rate : 192 KbpsChannel(s) : 2 channelsSampling rate : 48.0 KHzCompression mode : LossyStream size : 123 MiB (3%)Language : English
Скриншоты
Скачать

Скачать торрент!

Как скачивать? · Что такое торрент? · Рейтинг и ограничения

Сайт не распространяет и не хранит электронные версии произведений, а лишь предоставляет доступ к создаваемому пользователями каталогу ссылок на торрент-файлы, которые содержат только списки хеш-сумм

[Профиль] [ЛС]
Показать сообщения:    
Ответить на тему

Текущее время: Сегодня 15:34

Часовой пояс: GMT + 4



Вы не можете начинать темы
Вы не можете отвечать на сообщения
Вы не можете редактировать свои сообщения
Вы не можете удалять свои сообщения
Вы не можете голосовать в опросах
Вы не можете прикреплять файлы к сообщениям
Вы не можете скачивать файлы