Тюрьма округа Джексон / Jackson County Jail / The Innocent Victim (Майкл Миллер / Michael Miller) [1976, США, боевик, триллер, драма, криминал, HDTV 1080i] DVO (НТВ+) + Original Eng

Ответить на тему
 
Автор Сообщение

user ®

Стаж: 7 лет 7 месяцев

Сообщений: 20008

Пост Пост: #1 от 23-Авг-2015 01:03

[Цитировать]

Тюрьма округа Джексон / Jackson County Jail / The Innocent Victim- Страна: США
Студия: New World Pictures
Жанр: боевик, триллер, драма, криминал
Год выпуска: 1976
Продолжительность: 01:20:28-Перевод: Профессиональный (двухголосый закадровый) НТВ+
Cубтитры: нет
Оригинальная аудиодорожка: английский-Режиссер: Майкл Миллер / Michael Miller
В ролях: Иветт Мимье, Томми Ли Джонс, Роберт Кэррэдин, Фредерик Кук, Северн Дарден, Ховард Хессеман- | Релиз: -Описание: Роскошная, модно одетая работница рекламы бросает работу и изменяющего ей любовника в Лос-Анджелесе и направляется в Нью-Йорк. По дороге ее избивают несовершеннолетние хитчхайкеры, забирают машину, и она остается в каком-то сомнительном городке, как из вестерна, где ее быстро сажают в тюрьму по ложному обвинению, а там насилует тюремщик-психопат. Она убивает подонка и вынуждена пуститься в бега с грубоватым, но заботливым сокамерником, резким деревенским парнем, который ворует, потому что все бесчестны.-Семпл: http://sendfile.su/1148080-Тип релиза: HDTV 1080i
Контейнер: TS
Видео: 1920x1080i (16:9), 25.000 fps, AVC, ~7330 Kbps, 0.141 bits/pixel
Аудио 1: Русский, 48.0 KHz, MPEG-1 Audio layer 2, 2 ch, 192 kbps
Аудио 2: English, 48.0 KHz, MPEG-1 Audio layer 2, 2 ch, 192 kbps
MediaInfo
GeneralID : 1 (0x1)Complete name : Jackson County Jail 1976 MGMHD 1080i.rus.eng.tsFormat : MPEG-TSFile size : 4.56 GiBDuration : 1h 20mnOverall bit rate mode : VariableOverall bit rate : 8 119 KbpsMaximum Overall bit rate : 35.5 Mbps
VideoID : 4113 (0x1011)Menu ID : 1 (0x1)Format : AVCFormat/Info : Advanced Video CodecFormat profile : Main@L4Format settings, CABAC : YesFormat settings, ReFrames : 4 framesFormat settings, GOP : M=4, N=28Codec ID : 27Duration : 1h 20mnBit rate mode : VariableBit rate : 7 330 KbpsMaximum bit rate : 40.0 MbpsWidth : 1 920 pixelsHeight : 1 080 pixelsDisplay aspect ratio : 16:9Frame rate : 25.000 fpsStandard : ComponentColor space : YUVChroma subsampling : 4:2:0Bit depth : 8 bitsScan type : InterlacedScan order : Top Field FirstBits/(Pixel*Frame) : 0.141Stream size : 4.12 GiB (90%)Color range : LimitedColor primaries : BT.709Transfer characteristics : BT.709Matrix coefficients : BT.709
Audio #1ID : 4352 (0x1100)Menu ID : 1 (0x1)Format : MPEG AudioFormat version : Version 1Format profile : Layer 2Codec ID : 4Duration : 1h 20mnBit rate mode : ConstantBit rate : 192 KbpsChannel(s) : 2 channelsSampling rate : 48.0 KHzCompression mode : LossyStream size : 111 MiB (2%)Language : Russian
Audio #2ID : 4353 (0x1101)Menu ID : 1 (0x1)Format : MPEG AudioFormat version : Version 1Format profile : Layer 2Codec ID : 4Duration : 1h 20mnBit rate mode : ConstantBit rate : 192 KbpsChannel(s) : 2 channelsSampling rate : 48.0 KHzCompression mode : LossyStream size : 111 MiB (2%)Language : English
Скриншоты
Скачать

Скачать торрент!

Как скачивать? · Что такое торрент? · Рейтинг и ограничения

Сайт не распространяет и не хранит электронные версии произведений, а лишь предоставляет доступ к создаваемому пользователями каталогу ссылок на торрент-файлы, которые содержат только списки хеш-сумм

[Профиль] [ЛС]
Показать сообщения:    
Ответить на тему

Текущее время: Сегодня 09:56

Часовой пояс: GMT + 4



Вы не можете начинать темы
Вы не можете отвечать на сообщения
Вы не можете редактировать свои сообщения
Вы не можете удалять свои сообщения
Вы не можете голосовать в опросах
Вы не можете прикреплять файлы к сообщениям
Вы не можете скачивать файлы