Неприятности с обезьянкой / Monkey Trouble (Франко Амурри / Franco Amurri) [1994, США, комедия, приключения, семейный, WEB-DL 720p] 2x DVO + 3x AVO + Sub Eng + Original Eng

Ответить на тему
 
Автор Сообщение

user ®

Стаж: 7 лет 7 месяцев

Сообщений: 20008

Пост Пост: #1 от 23-Авг-2015 01:03

[Цитировать]

Неприятности с Обезьянкой / Monkey Trouble
-Страна: США
Жанр: комедия, приключения, семейный
Год выпуска: 1994
Продолжительность: 01:28:03-Перевод 1: Профессиональный (двухголосый, закадровый) ОРТ
Перевод 2: Профессиональный (двухголосый, закадровый)
Перевод 3: Авторский (одноголосый, закадровый) Гаврилов
Перевод 4: Авторский (одноголосый, закадровый) Горчаков
Перевод 5: Авторский (одноголосый, закадровый) Санаев
Cубтитры: английские
Оригинальная аудиодорожка: английский-Режиссер: Франко Амурри / Franco Amurri-В ролях: Финстер, Тора Бёрч, Харви Кейтель, Мими Роджерс, Кристофер МакДональд , Адриан Джонсон, Джулиан Джонсон, Кевин Сканнелл, Элисон Эллиотт, Роберт Миранда-Описание:
Мелкий мошенник Азро выдрессировал мартышку воровать деньги и ценности. От него уходит жена, и, напившись, Азро избивает мартышку. Мартышка убегает к девятилетней девочке Еве, квартиру которой она ограбила. Девочка отучает мартышку от «криминального творчества». Азро, нанятый мафией для крупной аферы и уже получивший крупный аванс, был просто в шоке от такого исправления.-Сэмпл: Скачать-Тип релиза: WEB-DL 720p
Контейнер: MKV-Видео: 1280x720 (16:9); 4 034 Kbps; 23.976 fps; 0.183 bpp
Аудио 1: Russian; AC3; 48.0 KHz; 2ch; 192 Kbps MVO ОРТ
Аудио 2: Russian; AC3; 48.0 KHz; 2ch; 192 Kbps MVO
Аудио 3: Russian; AC3; 48.0 KHz; 2ch; 192 Kbps AVO Гаврилов
Аудио 4: Russian; AC3; 48.0 KHz; 2ch; 192 Kbps AVO Горчаков
Аудио 5: Russian; AC3; 48.0 KHz; 2ch; 192 Kbps AVO Санаев
Аудио 6: English; AC3; 48.0 KHz; 6ch; 448 Kbps
MediaInfo
Format : Matroska
Format : Matroska
Format version : Version 4 / Version 2
File size : 3.73 GiB
Duration : 1h 36mn
Overall bit rate : 5 552 Kbps
Encoded date : UTC 2015-08-22 14:27:40
Writing application : mkvmerge v8.1.0 ('Psychedelic Postcard') 64bit
Writing library : libebml v1.3.1 + libmatroska v1.4.2
Attachements : poster.jpg
DURATION : 01:32:14.193000000
NUMBER_OF_FRAMES : 1539
NUMBER_OF_BYTES : 38637
_STATISTICS_WRITING_APP : mkvmerge v8.1.0 ('Psychedelic Postcard') 64bit
_STATISTICS_WRITING_DATE_UTC : 2015-08-22 14:27:40
_STATISTICS_TAGS : BPS DURATION NUMBER_OF_FRAMES NUMBER_OF_BYTES
Video
ID : 1
Format : AVC
Format/Info : Advanced Video Codec
Format profile : High@L3.1
Format settings, CABAC : No
Format settings, ReFrames : 2 frames
Codec ID : V_MPEG4/ISO/AVC
Duration : 1h 36mn
Bit rate : 4 034 Kbps
Width : 1 280 pixels
Height : 720 pixels
Display aspect ratio : 16:9
Frame rate mode : Constant
Frame rate : 23.976 fps
Color space : YUV
Chroma subsampling : 4:2:0
Bit depth : 8 bits
Scan type : Progressive
Bits/(Pixel*Frame) : 0.183
Stream size : 2.71 GiB (73%)
Title : Monkey.Trouble.1994.720p.WEB-DL.AAC2.0.H264-FGT
Language : English
Default : Yes
Forced : No
Color primaries : BT.709
Transfer characteristics : BT.709
Matrix coefficients : BT.709
Audio #1
ID : 2
Format : AC-3
Format/Info : Audio Coding 3
Mode extension : CM (complete main)
Format settings, Endianness : Big
Codec ID : A_AC3
Duration : 1h 36mn
Bit rate mode : Constant
Bit rate : 192 Kbps
Channel(s) : 2 channels
Channel positions : Front: L R
Sampling rate : 48.0 KHz
Bit depth : 16 bits
Compression mode : Lossy
Stream size : 132 MiB (3%)
Title : MVO ОРТ
Language : Russian
Default : Yes
Forced : No
Audio #2
ID : 3
Format : AC-3
Format/Info : Audio Coding 3
Mode extension : CM (complete main)
Format settings, Endianness : Big
Codec ID : A_AC3
Duration : 1h 36mn
Bit rate mode : Constant
Bit rate : 192 Kbps
Channel(s) : 2 channels
Channel positions : Front: L R
Sampling rate : 48.0 KHz
Bit depth : 16 bits
Compression mode : Lossy
Stream size : 132 MiB (3%)
Title : MVO
Language : English
Default : No
Forced : No
Audio #3
ID : 4
Format : AC-3
Format/Info : Audio Coding 3
Mode extension : CM (complete main)
Format settings, Endianness : Big
Codec ID : A_AC3
Duration : 1h 36mn
Bit rate mode : Constant
Bit rate : 192 Kbps
Channel(s) : 2 channels
Channel positions : Front: L R
Sampling rate : 48.0 KHz
Bit depth : 16 bits
Compression mode : Lossy
Stream size : 132 MiB (3%)
Title : AVO Гаврилов
Language : Russian
Default : No
Forced : No
Audio #4
ID : 5
Format : AC-3
Format/Info : Audio Coding 3
Mode extension : CM (complete main)
Format settings, Endianness : Big
Codec ID : A_AC3
Duration : 1h 36mn
Bit rate mode : Constant
Bit rate : 192 Kbps
Channel(s) : 2 channels
Channel positions : Front: L R
Sampling rate : 48.0 KHz
Bit depth : 16 bits
Compression mode : Lossy
Stream size : 132 MiB (3%)
Title : AVO Горчаков
Language : Russian
Default : No
Forced : No
Audio #5
ID : 6
Format : AC-3
Format/Info : Audio Coding 3
Mode extension : CM (complete main)
Format settings, Endianness : Big
Codec ID : A_AC3
Duration : 1h 36mn
Bit rate mode : Constant
Bit rate : 192 Kbps
Channel(s) : 2 channels
Channel positions : Front: L R
Sampling rate : 48.0 KHz
Bit depth : 16 bits
Compression mode : Lossy
Stream size : 132 MiB (3%)
Title : AVO Санаев
Language : Russian
Default : No
Forced : No
Audio #6
ID : 7
Format : AC-3
Format/Info : Audio Coding 3
Mode extension : CM (complete main)
Format settings, Endianness : Big
Codec ID : A_AC3
Duration : 1h 36mn
Bit rate mode : Constant
Bit rate : 448 Kbps
Channel(s) : 6 channels
Channel positions : Front: L C R, Side: L R, LFE
Sampling rate : 48.0 KHz
Bit depth : 16 bits
Compression mode : Lossy
Stream size : 308 MiB (8%)
Language : English
Default : No
Forced : No
Text
ID : 8
Format : UTF-8
Codec ID : S_TEXT/UTF8
Codec ID/Info : UTF-8 Plain Text
Language : English
Default : No
Forced : No
Menu
00:00:00.000 : en:Chapter 1
00:10:55.000 : en:Chapter 2
00:20:19.000 : en:Chapter 3
00:30:28.000 : en:Chapter 4
00:40:20.000 : en:Chapter 5
00:51:26.000 : en:Chapter 6
01:00:53.000 : en:Chapter 7
01:10:08.000 : en:Chapter 8
01:20:02.000 : en:Chapter 9
01:30:16.000 : en:Chapter 10
Скриншоты
Скачать

Скачать торрент!

Как скачивать? · Что такое торрент? · Рейтинг и ограничения

Сайт не распространяет и не хранит электронные версии произведений, а лишь предоставляет доступ к создаваемому пользователями каталогу ссылок на торрент-файлы, которые содержат только списки хеш-сумм

[Профиль] [ЛС]
Показать сообщения:    
Ответить на тему

Текущее время: Сегодня 02:16

Часовой пояс: GMT + 4



Вы не можете начинать темы
Вы не можете отвечать на сообщения
Вы не можете редактировать свои сообщения
Вы не можете удалять свои сообщения
Вы не можете голосовать в опросах
Вы не можете прикреплять файлы к сообщениям
Вы не можете скачивать файлы