Инстинкт / Instinct (Джон Тартелтауб / John Turteltaub) [1999, США, драма, WEB-DL 720p] DVO (R5) + AVO (Визгунов) + Original (Eng) + Sub (Rus, Eng)

Ответить на тему
 
Автор Сообщение

user ®

Стаж: 8 лет 2 месяца

Сообщений: 20008

Пост Пост: #1 от 22-Авг-2015 21:57

[Цитировать]

Инстинкт / Instinct
Страна: США
Жанр: Драма
Год выпуска: 1999
Продолжительность: 02:03:32
Перевод 1: Профессиональный (двухголосый закадровый)
Перевод 2: Авторский (одноголосый закадровый)
Cубтитры: русские, английские
Режиссер: Джон Тартелтауб / John Turteltaub
В ролях: Энтони Хопкинс, Куба Гудинг мл., Дональд Сазерленд, Мора Тирни, Джордж Дзундза, Джон Эштон и др.
Описание:
В недрах блестящего ума приматолога Итана Пауэлла лежит зловещая тайна, которую не смогли разгадать ни семья, ни власти, заключившие гениального ученого под стражу за убийство в джунглях Руанды. Теперь, заключенный в жестокой тюрьме для умалишенных преступников, Пауэлл, не разговаривавший годами, достается психиатру Тео Колдеру, который должен сломать печать темной тайны на пути к его изощренному разуму. Врач открывает цепь все более усложняющихся загадок, вопросов с ошеломляющими ответами и шокирующих психологических истин.
Доп. информация:
WEB-DL 720p@alfablac (СЭМПЛ)
Двухголосый перевод и русские субтитры [url=http://***/forum/viewtopic.php?t=3362759]отсюда[/url]
За оцифровку VHS с переводом Визгунова спасибо [url=http://***/forum/profile.php?mode=viewprofile&u=20564]Fikaloid[/url].

Отчет MediaInfo
Цитата:
General
General
Unique ID : 238817088664669630461255568224485110581 (0xB3AA7F8BF0AC259F9953F7AFFE23F335)
Complete name : D:\Кино\Instinct.1999.720p.WEB-DL.720p.2xRus.Eng.mkv
Format : Matroska
Format version : Version 4 / Version 2
File size : 4.36 GiB
Duration : 2h 3mn
Overall bit rate : 5 048 Kbps
Encoded date : UTC 2015-08-13 17:11:00
Writing application : mkvmerge v7.0.0 ('Where We Going') 32bit built on Jun 9 2014 15:08:34
Writing library : libebml v1.3.0 + libmatroska v1.4.1
_STATISTICS_WRITING_APP : mkvmerge v7.0.0 ('Where We Going') 32bit built on Jun 9 2014 15:08:34
_STATISTICS_WRITING_DATE_UTC : 2015-08-13 17:11:00
_STATISTICS_TAGS : BPS DURATION NUMBER_OF_FRAMES NUMBER_OF_BYTES
DURATION : 01:57:19.740000000
NUMBER_OF_FRAMES : 1200
NUMBER_OF_BYTES : 69760
Video
ID : 1
Format : AVC
Format/Info : Advanced Video Codec
Format profile : Main@L3.1
Format settings, CABAC : No
Format settings, ReFrames : 2 frames
Codec ID : V_MPEG4/ISO/AVC
Duration : 2h 3mn
Width : 1 280 pixels
Height : 542 pixels
Display aspect ratio : 2.35:1
Frame rate mode : Constant
Frame rate : 23.976 fps
Color space : YUV
Chroma subsampling : 4:2:0
Bit depth : 8 bits
Scan type : Progressive
Language : English
Default : Yes
Forced : No
Color primaries : BT.709
Transfer characteristics : BT.709
Matrix coefficients : BT.709
Audio #1
ID : 2
Format : AC-3
Format/Info : Audio Coding 3
Mode extension : CM (complete main)
Format settings, Endianness : Big
Codec ID : A_AC3
Duration : 2h 3mn
Bit rate mode : Constant
Bit rate : 384 Kbps
Channel count : 6 channels
Channel positions : Front: L C R, Side: L R, LFE
Sampling rate : 48.0 KHz
Bit depth : 16 bits
Compression mode : Lossy
Stream size : 339 MiB (8%)
Title : DVO, R5
Language : Russian
Default : Yes
Forced : No
Audio #2
ID : 3
Format : AC-3
Format/Info : Audio Coding 3
Mode extension : CM (complete main)
Format settings, Endianness : Big
Codec ID : A_AC3
Duration : 2h 3mn
Bit rate mode : Constant
Bit rate : 192 Kbps
Channel count : 2 channels
Channel positions : Front: L R
Sampling rate : 48.0 KHz
Bit depth : 16 bits
Compression mode : Lossy
Stream size : 170 MiB (4%)
Title : Vizgunov
Language : Russian
Default : No
Forced : No
Audio #3
ID : 4
Format : AC-3
Format/Info : Audio Coding 3
Mode extension : CM (complete main)
Format settings, Endianness : Big
Codec ID : A_AC3
Duration : 2h 3mn
Bit rate mode : Constant
Bit rate : 384 Kbps
Channel count : 6 channels
Channel positions : Front: L C R, Side: L R, LFE
Sampling rate : 48.0 KHz
Bit depth : 16 bits
Compression mode : Lossy
Stream size : 339 MiB (8%)
Title : English, 5.1
Language : English
Default : No
Forced : No
Audio #4
ID : 5
Format : AAC
Format/Info : Advanced Audio Codec
Format profile : LC
Codec ID : A_AAC
Duration : 2h 3mn
Channel count : 2 channels
Channel positions : Front: L R
Sampling rate : 48.0 KHz
Compression mode : Lossy
Title : English (2.0, iTunes)
Language : English
Default : No
Forced : No
Text #1
ID : 6
Format : UTF-8
Codec ID : S_TEXT/UTF8
Codec ID/Info : UTF-8 Plain Text
Title : Russian
Language : Russian
Default : No
Forced : No
Text #2
ID : 7
Format : UTF-8
Codec ID : S_TEXT/UTF8
Codec ID/Info : UTF-8 Plain Text
Title : English
Language : English
Default : No
Forced : No
Menu
00:00:00.000 : en:Opening Credits
00:05:51.000 : en:Clinical Observation
00:09:27.000 : en:Rampage At The Airport
00:16:50.000 : en:Who's Got The Ace?
00:22:21.000 : en:Interview #1
00:27:21.000 : en:Powell's Ace
00:32:56.000 : en:Interview #2
00:39:30.000 : en:Progress Report
00:41:35.000 : en:Interview #3: Going Back
00:46:50.000 : en:Entering The World Of The Gorillas
00:55:16.000 : en:Questioning The System
01:03:52.000 : en:The Journey Continues
01:08:10.000 : en:Control
01:13:35.000 : en:True History Of Mankind
01:16:24.000 : en:No More Ace
01:21:22.000 : en:Risking Everything
01:32:36.000 : en:Hunters
01:34:36.000 : en:The Riot
01:42:48.000 : en:Trying Not To Say Goodbye
01:56:07.000 : en:A Note From Powell
01:58:34.000 : en:End Credits
Качество: WEB-DL
Формат: MKV
Видео кодек: H.264
Аудио кодек: AC3, AAC
Видео: 1280x542; 23.976 fps, ~4000 kbps
Аудио:
1 - Dolby AC3; Rus; 48000Hz; 6ch; 384kbps [двухголосый перевод] DVD, R5
2 - Dolby AC3; Rus; 48000Hz; 2ch; 192kbps [Сергей Визгунов] VHSRip
3 - Dolby AC3; Eng; 48000Hz; 6ch; 384kbps [оригинал] DVD, R5
4 - AAC; Eng; 48000Hz; 2ch; 160kbps [оригинал] iTunes
скриншоты
Скачать

Скачать торрент!

Как скачивать? · Что такое торрент? · Рейтинг и ограничения

Сайт не распространяет и не хранит электронные версии произведений, а лишь предоставляет доступ к создаваемому пользователями каталогу ссылок на торрент-файлы, которые содержат только списки хеш-сумм

[Профиль] [ЛС]
Показать сообщения:    
Ответить на тему

Текущее время: Сегодня 21:09

Часовой пояс: GMT + 4



Вы не можете начинать темы
Вы не можете отвечать на сообщения
Вы не можете редактировать свои сообщения
Вы не можете удалять свои сообщения
Вы не можете голосовать в опросах
Вы не можете прикреплять файлы к сообщениям
Вы не можете скачивать файлы