Сесар Чавес / Cesar Chavez (Диего Луна / Diego Luna) [2014, США, Мексика, биография, BDRip 720p] MVO + Sub Eng + Original Eng

Ответить на тему
 
Автор Сообщение

user ®

Стаж: 7 лет 7 месяцев

Сообщений: 20008

Пост Пост: #1 от 22-Авг-2015 21:57

[Цитировать]

Сесар Чавес / Cesar Chavez
Страна: США, Мексика
Студия: Canana Films
Жанр: биография
Год выпуска: 2014
Продолжительность: 01:41:56
Перевод: Профессиональный (многоголосый закадровый)
Cубтитры: английские
Оригинальная аудиодорожка: английский
Режиссер: Диего Луна / Diego Luna
В ролях: Майкл Пенья, Америка Феррера, Розарио Доусон, Джон Малкович, Kerry Adra, Мейнор Альварадо, Янси Ариас, Уэс Бентли, Сара Банерджи, Джейкоб Варгас
Описание: Майкл Пенья, Америка Феррара и Розарио Доусон в биографическом фильме Диего Луна «Сесар Чавес». Фильм основан на фактах из жизни знаменитого защитника прав трудящихся Сесара Чавеса. Чавес прилагает всевозможные усилия, чтобы помочь сельскохозяйственным рабочим в Калифорнии, большая часть которых приехала из Мексики. Им временно разрешено трудиться в США, однако сразу по завершении работы мексиканцев насильно отправляют восвояси. Помимо всего прочего, мигранты страдают от проявления нетерпимости со стороны работодателей и местных жителей. Чавес разрывается между общественным долгом и своей семьей, налагающей на него другие обязанности. Будучи страстным, но мягким лидером, Чавес выбирает путь ненасилия и создает профсоюз, который призван помочь трудящимся с преодолением жестокости и предрассудков общества. В фильме освещена история нескольких мирных забастовок, произошедших в середине 1970-х годов. Для того чтобы проследить за жизнью честного борца за права рабочих и его попытками изменить мир, можно смотреть ленту «Сесар Чавес».

Тип релиза: BDRip 720p
Контейнер: MKV
Видео: MPEG-4 AVC, 6718 Кбит/с, 1280x534, 23,976 fps
Аудио: Rus, AC3, 192 kb/s (2 ch), 48 kHz
Аудио 2: Eng, AC3, 640 kb/s (6 ch), 48 kHz
Формат субтитров: softsub (SRT)
MediaInfo
x264 [info]: frame I:985 Avg QP:15.43 size: 91665
x264 [info]: frame P:31357 Avg QP:16.95 size: 48877
x264 [info]: frame B:114317 Avg QP:18.37 size: 31747
x264 [info]: consecutive B-frames: 2.0% 3.4% 9.1% 14.1% 13.3% 45.6% 4.8% 1.3% 1.5% 2.1% 2.7%
Format : Matroska
Format version : Version 4 / Version 2
File size : 5.49 GiB
Duration : 1h 41mn
Overall bit rate : 7 703 Kbps
Movie name : Сесар Чавес. (Tonik)
Encoded date : UTC 2015-08-22 06:17:04
Writing application : mkvmerge v7.1.0 ('Good Love') 64bit built on Jul 27 2014 13:06:55
Writing library : libebml v1.3.0 + libmatroska v1.4.1
DURATION : 01:41:56.896000000
NUMBER_OF_FRAMES : 191153
NUMBER_OF_BYTES : 146805504
_STATISTICS_WRITING_APP : mkvmerge v7.1.0 ('Good Love') 64bit built on Jul 27 2014 13:06:55
_STATISTICS_WRITING_DATE_UTC : 2015-08-22 06:17:04
_STATISTICS_TAGS : BPS DURATION NUMBER_OF_FRAMES NUMBER_OF_BYTES
Video
ID : 1
Format : AVC
Format/Info : Advanced Video Codec
Format profile : High@L4.1
Format settings, CABAC : Yes
Format settings, ReFrames : 12 frames
Codec ID : V_MPEG4/ISO/AVC
Bit rate : 6 718 Kbps
Width : 1 280 pixels
Height : 534 pixels
Display aspect ratio : 2.40:1
Frame rate mode : Variable
Original frame rate : 23.976 fps
Color space : YUV
Chroma subsampling : 4:2:0
Bit depth : 8 bits
Scan type : Progressive
Writing library : x264 core 142 r2409+42 04be48a tMod [8-bit@all X86_64]
Encoding settings : cabac=1 / ref=12 / deblock=1:-3:-3 / analyse=0x3:0x133 / me=esa / subme=10 / psy=1 / fade_compensate=0.00 / psy_rd=1.05:0.00 / mixed_ref=1 / me_range=32 / chroma_me=1 / trellis=2 / 8x8dct=1 / cqm=0 / deadzone=21,11 / fast_pskip=0 / chroma_qp_offset=-2 / threads=12 / lookahead_threads=3 / sliced_threads=0 / nr=0 / decimate=1 / interlaced=0 / bluray_compat=0 / constrained_intra=0 / fgo=0 / bframes=10 / b_pyramid=2 / b_adapt=2 / b_bias=0 / direct=3 / weightb=1 / open_gop=0 / weightp=2 / keyint=241 / keyint_min=23 / scenecut=40 / intra_refresh=0 / rc_lookahead=60 / rc=crf / mbtree=0 / crf=16.6000 / qcomp=0.70 / qpmin=0:0:0 / qpmax=69:69:69 / qpstep=4 / vbv_maxrate=50000 / vbv_bufsize=62500 / crf_max=0.0 / nal_hrd=none / filler=0 / ip_ratio=1.30 / pb_ratio=1.20 / aq=4:0.70 / aq-sensitivity=10.00 / aq-factor=1.00:1.00:1.00 / aq2=0 / aq3=0 / zones=135579,146658,q=26
Language : English
Default : Yes
Forced : No
DURATION : 01:41:56.903000000
NUMBER_OF_FRAMES : 146659
NUMBER_OF_BYTES : 5252183313
_STATISTICS_WRITING_APP : mkvmerge v7.1.0 ('Good Love') 64bit built on Jul 27 2014 13:06:55
_STATISTICS_WRITING_DATE_UTC : 2015-08-22 06:17:04
_STATISTICS_TAGS : BPS DURATION NUMBER_OF_FRAMES NUMBER_OF_BYTES
Audio #1
ID : 2
Format : AC-3
Format/Info : Audio Coding 3
Mode extension : CM (complete main)
Format settings, Endianness : Big
Codec ID : A_AC3
Duration : 1h 41mn
Bit rate mode : Constant
Bit rate : 192 Kbps
Channel(s) : 2 channels
Channel positions : Front: L R
Sampling rate : 48.0 KHz
Bit depth : 16 bits
Compression mode : Lossy
Stream size : 140 MiB (2%)
Language : Russian
Default : Yes
Forced : No
Audio #2
ID : 3
Format : AC-3
Format/Info : Audio Coding 3
Mode extension : CM (complete main)
Format settings, Endianness : Big
Codec ID : A_AC3
Duration : 1h 41mn
Bit rate mode : Constant
Bit rate : 640 Kbps
Channel(s) : 6 channels
Channel positions : Front: L C R, Side: L R, LFE
Sampling rate : 48.0 KHz
Bit depth : 16 bits
Compression mode : Lossy
Stream size : 467 MiB (8%)
Language : English
Default : No
Forced : No
Text #1
ID : 4
Format : UTF-8
Codec ID : S_TEXT/UTF8
Codec ID/Info : UTF-8 Plain Text
Title : Forced
Language : English
Default : No
Forced : No
Text #2
ID : 5
Format : UTF-8
Codec ID : S_TEXT/UTF8
Codec ID/Info : UTF-8 Plain Text
Language : English
Default : No
Forced : No
Text #3
ID : 6
Format : UTF-8
Codec ID : S_TEXT/UTF8
Codec ID/Info : UTF-8 Plain Text
Title : SDH
Language : English
Default : No
Forced : No
Menu
00:00:00.000 : :00:00:00.000
00:05:39.089 : :00:05:39.089
00:11:32.567 : :00:11:32.567
00:19:40.554 : :00:19:40.554
00:25:15.848 : :00:25:15.848
00:30:45.594 : :00:30:45.594
00:35:35.300 : :00:35:35.300
00:40:19.959 : :00:40:19.959
00:46:23.155 : :00:46:23.155
00:52:35.861 : :00:52:35.861
00:58:30.215 : :00:58:30.215
01:05:06.569 : :01:05:06.569
01:11:01.340 : :01:11:01.340
01:18:01.594 : :01:18:01.594
01:23:29.880 : :01:23:29.880
01:29:32.033 : :01:29:32.033
Скриншоты
Скачать

Скачать торрент!

Как скачивать? · Что такое торрент? · Рейтинг и ограничения

Сайт не распространяет и не хранит электронные версии произведений, а лишь предоставляет доступ к создаваемому пользователями каталогу ссылок на торрент-файлы, которые содержат только списки хеш-сумм

[Профиль] [ЛС]
Показать сообщения:    
Ответить на тему

Текущее время: Сегодня 14:44

Часовой пояс: GMT + 4



Вы не можете начинать темы
Вы не можете отвечать на сообщения
Вы не можете редактировать свои сообщения
Вы не можете удалять свои сообщения
Вы не можете голосовать в опросах
Вы не можете прикреплять файлы к сообщениям
Вы не можете скачивать файлы