Кто остановит дождь / Who\'ll Stop the Rain (Карел Рейш / Karel Reisz) [1978, США, боевик, триллер, драма, криминал, военный, HDTV 1080i] DVO (НТВ+) + Original Eng

Ответить на тему
 
Автор Сообщение

user ®

Стаж: 7 лет 7 месяцев

Сообщений: 20008

Пост Пост: #1 от 22-Авг-2015 21:57

[Цитировать]

Кто остановит дождь / Who'll Stop the Rain- Страна: США
Студия: Katzka-Jaffe | United Artists
Жанр: боевик, триллер, драма, криминал, военный,
Год выпуска: 1978
Продолжительность: 02:01:01-Перевод: Профессиональный (двухголосый закадровый) НТВ+
Cубтитры: нет
Оригинальная аудиодорожка: английский-Режиссер: Карел Рейш / Karel Reisz
В ролях: Ник Нолти, Тьюзди Уэлд, Майкл Мориарти, Энтони Цербе, Ричард Мейсер, Рэй Шарки, Гейл Стрикленд, Чарльз Хейд, Дэвид Опатошу, Хоакин Мартинес...- | Релиз: -Описание: По роману Роберта Стоуна "Псы-воины". Ветеран вьетнамской войны по просьбе своего друга соглашается перевезти из Юго-восточной Азии домой в Америку два килограмма героина. Но когда он приезжает к жене друга, чтобы отдать "товар", всё идёт наперекосяк.-Семпл: http://sendfile.su/1147986-Тип релиза: HDTV 1080i
Контейнер: TS
Видео: 1920x1080i (16:9), 25.000 fps, AVC, ~6273 Kbps, 0.121 bits/pixel
Аудио 1: Русский, 48.0 KHz, MPEG-1 Audio layer 2, 2 ch, 192 kbps
Аудио 2: English, 48.0 KHz, MPEG-1 Audio layer 2, 2 ch, 192 kbps
MediaInfo
GeneralID : 1 (0x1)Complete name : Who'll Stop the Rain 1978 MGMHD 1080i.rus.eng.tsFormat : MPEG-TSFile size : 5.92 GiBDuration : 2h 1mnOverall bit rate mode : VariableOverall bit rate : 7 007 KbpsMaximum Overall bit rate : 35.5 Mbps
VideoID : 4113 (0x1011)Menu ID : 1 (0x1)Format : AVCFormat/Info : Advanced Video CodecFormat profile : Main@L4Format settings, CABAC : YesFormat settings, ReFrames : 4 framesCodec ID : 27Duration : 2h 1mnBit rate mode : VariableBit rate : 6 273 KbpsMaximum bit rate : 40.0 MbpsWidth : 1 920 pixelsHeight : 1 080 pixelsDisplay aspect ratio : 16:9Frame rate : 25.000 fpsStandard : ComponentColor space : YUVChroma subsampling : 4:2:0Bit depth : 8 bitsScan type : InterlacedScan order : Top Field FirstBits/(Pixel*Frame) : 0.121Stream size : 5.30 GiB (90%)Color range : Limited
Audio #1ID : 4352 (0x1100)Menu ID : 1 (0x1)Format : MPEG AudioFormat version : Version 1Format profile : Layer 2Codec ID : 4Duration : 2h 1mnBit rate mode : ConstantBit rate : 192 KbpsChannel(s) : 2 channelsSampling rate : 48.0 KHzCompression mode : LossyStream size : 166 MiB (3%)Language : Russian
Audio #2ID : 4353 (0x1101)Menu ID : 1 (0x1)Format : MPEG AudioFormat version : Version 1Format profile : Layer 2Codec ID : 4Duration : 2h 1mnBit rate mode : ConstantBit rate : 192 KbpsChannel(s) : 2 channelsSampling rate : 48.0 KHzCompression mode : LossyStream size : 166 MiB (3%)Language : English
Скриншоты
Скачать

Скачать торрент!

Как скачивать? · Что такое торрент? · Рейтинг и ограничения

Сайт не распространяет и не хранит электронные версии произведений, а лишь предоставляет доступ к создаваемому пользователями каталогу ссылок на торрент-файлы, которые содержат только списки хеш-сумм

[Профиль] [ЛС]
Показать сообщения:    
Ответить на тему

Текущее время: Сегодня 05:57

Часовой пояс: GMT + 4



Вы не можете начинать темы
Вы не можете отвечать на сообщения
Вы не можете редактировать свои сообщения
Вы не можете удалять свои сообщения
Вы не можете голосовать в опросах
Вы не можете прикреплять файлы к сообщениям
Вы не можете скачивать файлы