Водоем / Body Of Water / Syvälle salattu (Юна Тена / Joona Tena) [2011, Финляндия, триллер, драма, BDRip 720p] DVO (студия "Sakura") + Sub Eng + Original Fin

Ответить на тему
 
Автор Сообщение

user ®

Стаж: 7 лет 7 месяцев

Сообщений: 20008

Пост Пост: #1 от 22-Авг-2015 18:51

[Цитировать]

Водоем / Body Of Water / Syvälle salattu Страна: Финляндия
Жанр: триллер, драма
Год выпуска: 2011
Продолжительность: 01:44:12
Перевод: Любительский (двухголосый закадровый) студия "Sakura"
Cубтитры: английские
Оригинальная аудиодорожка: финский-Режиссер: Юна Тена / Joona Tena
В ролях: Криста Косонен, Кай Лехтинен, Вильями Нойонен, Петер Францен, Ристо Аалтонен, Кари Хиеталахти, Илка Вилли, Кати Хюверинен, Pentti Korhonen, Пану Вауконен-Описание: Главная героиня — Юлия, мать-одиночка, юрист по экологическим вопросам. Однажды Юлию приглашают поработать в отдалённую деревню, которая вот-вот должна быть затоплена водохранилищем, построенным для того, чтобы охлаждать генераторы местной электростанции, снабжающей электричеством полстраны. И теперь героине придётся сделать всё, чтобы спасти деревню. Всё бы ничего, но вмешательство сверхъестественных сил заставит Юлию разгадать страшную тайну местного озера, связанную с её собственной семьёй.-Доп. информация: Русская аудиодорожка взята [url=http://***/forum/viewtopic.php?t=4382692]отсюда[/url]- -Сэмпл: скачать здесь (56 Мб)
Тип релиза: BDRip 720p
Контейнер: MKV
Исходник: Blu-Ray Disc 1080p
Видео кодек: H.264
Аудио кодек: DTS, MP3
Видео: 1280x544p, 23.976 fps, x264 ~4859 kbps
Аудио 1: Русский 48 kHz, MP3 2.0, 128 kbps | Двухголосый закадровый
Аудио 2: Финский 48 kHz, DTS 5.1, 1152 kbps | Оригинальный
Субтитры: английские (полные, SRT)
MediaInfo
General
Unique ID : 240254480881502973757473877482279818160 (0xB4BF5474586B4E6685A3FD14752C53B0)
Complete name : C:\...\Body.Of.Water.2011.720p.BluRay.x264.mkv
Format : Matroska
Format version : Version 4 / Version 2
File size : 4.47 GiB
Duration : 1h 44mn
Overall bit rate : 6 138 Kbps
Encoded date : UTC 2015-08-15 13:09:01
Writing application : mkvmerge v8.2.0 ('World of Adventure') 64bit
Writing library : libebml v1.3.1 + libmatroska v1.4.2
DURATION : 01:44:08.307000000
NUMBER_OF_FRAMES : 239193
NUMBER_OF_BYTES : 99972911
_STATISTICS_WRITING_APP : mkvmerge v8.2.0 ('World of Adventure') 64bit
_STATISTICS_WRITING_DATE_UT : 2015-08-15 13:09:01
_STATISTICS_TAGS : BPS DURATION NUMBER_OF_FRAMES NUMBER_OF_BYTES
Video
ID : 1
Format : AVC
Format/Info : Advanced Video Codec
Format profile : High@L3.1
Format settings, CABAC : Yes
Format settings, ReFrames : 5 frames
Codec ID : V_MPEG4/ISO/AVC
Duration : 1h 44mn
Bit rate : 4 859 Kbps
Width : 1 280 pixels
Height : 544 pixels
Display aspect ratio : 2.35:1
Frame rate mode : Constant
Frame rate : 23.976 fps
Color space : YUV
Chroma subsampling : 4:2:0
Bit depth : 8 bits
Scan type : Progressive
Bits/(Pixel*Frame) : 0.291
Stream size : 3.45 GiB (77%)
Writing library : x264 core 120 r2146 bcd41db
Encoding settings : cabac=1 / ref=5 / deblock=1:0:0 / analyse=0x3:0x133 / me=umh / subme=7 / psy=1 / psy_rd=1.00:0.00 / mixed_ref=1 / me_range=16 / chroma_me=1 / trellis=1 / 8x8dct=1 / cqm=0 / deadzone=21,11 / fast_pskip=0 / chroma_qp_offset=-2 / threads=6 / sliced_threads=0 / nr=0 / decimate=1 / interlaced=0 / bluray_compat=0 / constrained_intra=0 / bframes=3 / b_pyramid=2 / b_adapt=2 / b_bias=0 / direct=3 / weightb=1 / open_gop=0 / weightp=2 / keyint=250 / keyint_min=23 / scenecut=40 / intra_refresh=0 / rc_lookahead=50 / rc=2pass / mbtree=1 / bitrate=4859 / ratetol=1.0 / qcomp=0.60 / qpmin=0 / qpmax=69 / qpstep=4 / cplxblur=20.0 / qblur=0.5 / ip_ratio=1.40 / aq=1:1.00
Language : English
Default : Yes
Forced : No
DURATION : 01:44:08.409000000
NUMBER_OF_FRAMES : 149812
NUMBER_OF_BYTES : 3794722859
_STATISTICS_WRITING_APP : mkvmerge v8.2.0 ('World of Adventure') 64bit
_STATISTICS_WRITING_DATE_UT : 2015-08-15 13:09:01
_STATISTICS_TAGS : BPS DURATION NUMBER_OF_FRAMES NUMBER_OF_BYTES
Audio #1
ID : 2
Format : MPEG Audio
Format version : Version 1
Format profile : Layer 3
Mode : Joint stereo
Mode extension : MS Stereo
Codec ID : A_MPEG/L3
Codec ID/Hint : MP3
Duration : 1h 44mn
Bit rate mode : Constant
Bit rate : 128 Kbps
Channel(s) : 2 channels
Sampling rate : 44.1 KHz
Compression mode : Lossy
Delay relative to video : 2ms
Stream size : 95.4 MiB (2%)
Title : Двухголосый закадровый
Language : Russian
Default : Yes
Forced : No
Audio #2
ID : 3
Format : DTS
Format/Info : Digital Theater Systems
Mode : 16
Format settings, Endianness : Big
Codec ID : A_DTS
Duration : 1h 44mn
Bit rate mode : Constant
Bit rate : 1 152 Kbps
Channel(s) : 6 channels
Channel positions : Front: L C R, Side: L R, LFE
Sampling rate : 48.0 KHz
Bit depth : 24 bits
Compression mode : Lossy
Stream size : 859 MiB (19%)
Title : Оригинальный
Language : Finnish
Default : No
Forced : No
Text
ID : 4
Format : UTF-8
Codec ID : S_TEXT/UTF8
Codec ID/Info : UTF-8 Plain Text
Language : English
Default : No
Forced : No
Скриншоты
Скачать

Скачать торрент!

Как скачивать? · Что такое торрент? · Рейтинг и ограничения

Сайт не распространяет и не хранит электронные версии произведений, а лишь предоставляет доступ к создаваемому пользователями каталогу ссылок на торрент-файлы, которые содержат только списки хеш-сумм

[Профиль] [ЛС]
Показать сообщения:    
Ответить на тему

Текущее время: Сегодня 15:35

Часовой пояс: GMT + 4



Вы не можете начинать темы
Вы не можете отвечать на сообщения
Вы не можете редактировать свои сообщения
Вы не можете удалять свои сообщения
Вы не можете голосовать в опросах
Вы не можете прикреплять файлы к сообщениям
Вы не можете скачивать файлы