Стрельба / Shottas (Цесс Сильвера /Cess Silvera) [2002, США, Ямайка, боевик, драма, криминал, WEB-DL 720p] MVO (Первый канал) + Sub Eng + Original Eng

Ответить на тему
 
Автор Сообщение

user ®

Стаж: 7 лет 7 месяцев

Сообщений: 20008

Пост Пост: #1 от 22-Авг-2015 18:51

[Цитировать]

Стрельба / Shottas
Страна: США, Ямайка
Студия: Access Pictures, Emmett/Furla Films, Jean Silvera Films
Жанр: боевик, драма, криминал
Год выпуска: 2002
Продолжительность: 01:38:44
Перевод: Профессиональный (многоголосый закадровый) Первый канал
Cубтитры: английские неотключаемые
Оригинальная аудиодорожка: английский
Режиссер: Цесс Сильвера /Cess Silvera
В ролях: Ки-Мани Марли, Луи Ранкин, Пол Кэмпбелл, Вайклеф Джин, Д. Сильвера, Карлтон Грант мл., Сан Сан, Адам Доенч
Описание: Неразлучные друзья Биггс и Уэйн промышляли разбоем на улицах родного Кингстона будучи еще детьми. Ограбив водителя грузовика, криминальная парочка на вырученные деньги приобрела визу в благополучную Америку, где их пути разошлись. Биггс и Уэйн уже поодиночке стали наводить страх на добропорядочных жителей Майами. Через двадцать лет терпению американских властей пришел конец, и Биггса депортировали обратно на Ямайку. На родной земле он встречает своего экс-подельника Уэйна, который четыре года назад также был выслан из Соединенных Штатов. Уэйн предлагает Биггсу, не теряя времени даром, возродить их преступный тандем.
Доп. информация: За русскую дорожку спасибо miha2154. Почти все герои фильма говорят на каком-то английском диалекте, или ямайском английском, видимо поэтому в видеоряд вшиты "чисто" английские сабы. То есть фразы в сабах и фильме часто немного отличаются. Наверно, как у нас есть русский язык и русский матерный. Смысл вроде тот же, а текст разный.

Sample
Тип релиза: WEB-DL 720p
Контейнер: MKV
Видео: MPEG4 AVC Video, H264, 16:9, 1276x720, 23.976 fps, 3934 kbps
Аудио: Russian (AC3, 2 ch, 192 kbps, 16 bits, 48.0 KHz) - MVO
Аудио 2: English (AC3, 6 ch, 384 kbps, 16 bits, 48.0 KHz) - оригинал
Формат субтитров: hardsub (неотключаемые)

MediaInfo
General
Unique ID : 219245832039969201611999662036862614002 (0xA4F1361876B7F203B1D8A7C78AEFB9F2)
Complete name : K:\Shottas 2002 WEB-DL 720p.mkv
Format : Matroska
Format version : Version 4 / Version 2
File size : 3.17 GiB
Duration : 1h 38mn
Overall bit rate : 4 602 Kbps
Encoded date : UTC 2015-08-19 09:31:52
Writing application : mkvmerge v6.1.0 ('Old Devil') built on Mar 2 2013 14:32:37
Writing library : libebml v1.3.0 + libmatroska v1.4.0
Video
ID : 1
Format : AVC
Format/Info : Advanced Video Codec
Format profile : High@L3.1
Format settings, CABAC : No
Format settings, ReFrames : 2 frames
Format settings, GOP : N=1
Codec ID : V_MPEG4/ISO/AVC
Duration : 1h 38mn
Bit rate : 3 934 Kbps
Width : 1 276 pixels
Height : 720 pixels
Display aspect ratio : 16:9
Frame rate mode : Constant
Frame rate : 23.976 fps
Color space : YUV
Chroma subsampling : 4:2:0
Bit depth : 8 bits
Scan type : Progressive
Bits/(Pixel*Frame) : 0.179
Stream size : 2.71 GiB (85%)
Language : English
Default : Yes
Forced : No
Color primaries : BT.709
Transfer characteristics : BT.709
Matrix coefficients : BT.709
Audio #1
ID : 2
Format : AC-3
Format/Info : Audio Coding 3
Mode extension : CM (complete main)
Format settings, Endianness : Big
Codec ID : A_AC3
Duration : 1h 38mn
Bit rate mode : Constant
Bit rate : 192 Kbps
Channel count : 2 channels
Channel positions : Front: L R
Sampling rate : 48.0 KHz
Bit depth : 16 bits
Compression mode : Lossy
Stream size : 136 MiB (4%)
Language : Russian
Default : Yes
Forced : Yes
Audio #2
ID : 3
Format : AC-3
Format/Info : Audio Coding 3
Mode extension : CM (complete main)
Format settings, Endianness : Big
Codec ID : A_AC3
Duration : 1h 38mn
Bit rate mode : Constant
Bit rate : 384 Kbps
Channel count : 6 channels
Channel positions : Front: L C R, Side: L R, LFE
Sampling rate : 48.0 KHz
Bit depth : 16 bits
Compression mode : Lossy
Stream size : 271 MiB (8%)
Language : English
Default : No
Forced : No
Menu
00:00:00.000 : en:Chapter 1
00:02:58.000 : en:Chapter 2
00:07:05.000 : en:Chapter 3
00:10:32.000 : en:Chapter 4
00:13:49.000 : en:Chapter 5
00:17:36.000 : en:Chapter 6
00:20:09.000 : en:Chapter 7
00:23:37.000 : en:Chapter 8
00:27:23.000 : en:Chapter 9
00:31:20.000 : en:Chapter 10
00:34:33.000 : en:Chapter 11
00:38:22.000 : en:Chapter 12
00:41:52.000 : en:Chapter 13
00:46:47.000 : en:Chapter 14
00:50:44.000 : en:Chapter 15
00:53:12.000 : en:Chapter 16
00:55:50.000 : en:Chapter 17
00:57:35.000 : en:Chapter 18
01:00:30.000 : en:Chapter 19
01:04:03.000 : en:Chapter 20
01:07:01.000 : en:Chapter 21
01:10:36.000 : en:Chapter 22
01:13:21.000 : en:Chapter 23
01:17:26.000 : en:Chapter 24
01:22:48.000 : en:Chapter 25
01:27:10.000 : en:Chapter 26
01:30:39.000 : en:Chapter 27
01:33:30.000 : en:Chapter 28
Скриншоты
Скачать

Скачать торрент!

Как скачивать? · Что такое торрент? · Рейтинг и ограничения

Сайт не распространяет и не хранит электронные версии произведений, а лишь предоставляет доступ к создаваемому пользователями каталогу ссылок на торрент-файлы, которые содержат только списки хеш-сумм

[Профиль] [ЛС]
Показать сообщения:    
Ответить на тему

Текущее время: Сегодня 14:13

Часовой пояс: GMT + 4



Вы не можете начинать темы
Вы не можете отвечать на сообщения
Вы не можете редактировать свои сообщения
Вы не можете удалять свои сообщения
Вы не можете голосовать в опросах
Вы не можете прикреплять файлы к сообщениям
Вы не можете скачивать файлы