Счастливая страна / Lucky Country / Dark Frontier (Крив Стендерс / Kriv Stenders) [2009, Австралия, драма, вестерн, WEB-DL 720p] DVO + Sub Eng + Original Eng

Ответить на тему
 
Автор Сообщение

user ®

Стаж: 7 лет 7 месяцев

Сообщений: 20008

Пост Пост: #1 от 22-Авг-2015 18:51

[Цитировать]

Счастливая страна / Lucky Country / Dark Frontier
Страна: Австралия
Студия: Adelaide Film Festival, Footprint Films и др.
Жанр: драма, вестерн
Год выпуска: 2009
Продолжительность: 01:35:53
Перевод: Любительский (двухголосый закадровый)
Cубтитры: английские (обычные, SDH)
Оригинальная аудиодорожка: английский
Режиссер: Крив Стендерс / Kriv Stenders
В ролях: Аден Янг, Тоби Уоллес, Ханна Мэнгэн Лоуренс, Пип Миллер, Нил Пигот, Имон Фэррен, Роберт Мензес, Хельмут Бакайтис, Мэл Коркхилл, Эдриан Кроуфорд
Описание: Австралия, 1902 год. Любящий отец увозит сына и дочь на далёкую ферму. Мальчик переживает сильнейшее потрясение, близко к сердцу воспринимая переезд и тот факт, что с мечтой ему придётся распрощаться. Многие люди того времени воспринимали многие события как знак судьбы. Так же случилось и у отца с сыном, которые подумали, что появление трёх солдат на их ферме — особенное знамение. Однако всё сложилось совсем не так, как хотелось после того, как один из бойцов показал кусочек золота.

Sample
Тип релиза: WEB-DL 720p
Контейнер: MKV
Видео: MPEG4 AVC Video, H264, 16:9, 1280x720, 23.976 fps, 4102 kbps
Аудио: Russian (AC3, 2 ch, 192 kbps, 16 bits, 48.0 KHz) - DVO
Аудио 2: English (AC3, 2 ch, 192 kbps, 16 bits, 48.0 KHz) - оригинал
Формат субтитров: softsub (SRT)

MediaInfo
General
Unique ID : 204255232086863943602898948685475678970 (0x99AA20747B94F33A81D268EF6C9D0AFA)
Complete name : K:\Lucky Country 2009 WEB-DL 720p.mkv
Format : Matroska
Format version : Version 4 / Version 2
File size : 3.07 GiB
Duration : 1h 35mn
Overall bit rate : 4 577 Kbps
Movie name : Dark Frontier (2009)
Encoded date : UTC 2015-08-19 08:43:53
Writing application : mkvmerge v6.1.0 ('Old Devil') built on Mar 2 2013 14:32:37
Writing library : libebml v1.3.0 + libmatroska v1.4.0
Video
ID : 1
Format : AVC
Format/Info : Advanced Video Codec
Format profile : High@L3.1
Format settings, CABAC : No
Format settings, ReFrames : 2 frames
Codec ID : V_MPEG4/ISO/AVC
Duration : 1h 35mn
Bit rate : 4 102 Kbps
Width : 1 280 pixels
Height : 720 pixels
Display aspect ratio : 16:9
Frame rate mode : Constant
Frame rate : 23.976 fps
Color space : YUV
Chroma subsampling : 4:2:0
Bit depth : 8 bits
Scan type : Progressive
Bits/(Pixel*Frame) : 0.186
Stream size : 2.75 GiB (90%)
Language : English
Default : Yes
Forced : No
Color primaries : BT.709
Transfer characteristics : BT.709
Matrix coefficients : BT.709
Audio #1
ID : 2
Format : AC-3
Format/Info : Audio Coding 3
Mode extension : CM (complete main)
Format settings, Endianness : Big
Codec ID : A_AC3
Duration : 1h 35mn
Bit rate mode : Constant
Bit rate : 192 Kbps
Channel count : 2 channels
Channel positions : Front: L R
Sampling rate : 48.0 KHz
Bit depth : 16 bits
Compression mode : Lossy
Stream size : 132 MiB (4%)
Language : Russian
Default : Yes
Forced : Yes
Audio #2
ID : 3
Format : AC-3
Format/Info : Audio Coding 3
Mode extension : CM (complete main)
Format settings, Endianness : Big
Codec ID : A_AC3
Duration : 1h 35mn
Bit rate mode : Constant
Bit rate : 192 Kbps
Channel count : 2 channels
Channel positions : Front: L R
Sampling rate : 48.0 KHz
Bit depth : 16 bits
Compression mode : Lossy
Stream size : 132 MiB (4%)
Language : English
Default : No
Forced : No
Text #1
ID : 4
Format : UTF-8
Codec ID : S_TEXT/UTF8
Codec ID/Info : UTF-8 Plain Text
Language : English
Default : No
Forced : No
Text #2
ID : 5
Format : UTF-8
Codec ID : S_TEXT/UTF8
Codec ID/Info : UTF-8 Plain Text
Title : SDH
Language : English
Default : No
Forced : No
Menu
00:00:00.000 : en:1
00:09:15.000 : en:2
00:20:07.000 : en:3
00:28:11.000 : en:4
00:39:19.000 : en:5
00:51:30.000 : en:6
01:01:17.000 : en:7
01:11:46.000 : en:8
01:21:26.000 : en:9
01:32:07.000 : en:10
Скриншоты
Скачать

Скачать торрент!

Как скачивать? · Что такое торрент? · Рейтинг и ограничения

Сайт не распространяет и не хранит электронные версии произведений, а лишь предоставляет доступ к создаваемому пользователями каталогу ссылок на торрент-файлы, которые содержат только списки хеш-сумм

[Профиль] [ЛС]
Показать сообщения:    
Ответить на тему

Текущее время: Сегодня 11:51

Часовой пояс: GMT + 4



Вы не можете начинать темы
Вы не можете отвечать на сообщения
Вы не можете редактировать свои сообщения
Вы не можете удалять свои сообщения
Вы не можете голосовать в опросах
Вы не можете прикреплять файлы к сообщениям
Вы не можете скачивать файлы