Станцуем, крошка! / Энгус / Angus (Патрик Рид Джонсон / Patrick Read Johnson) [1995, США, Великобритания, Германия, Франция, драма, комедия, WEB-DL 720p] DVO + Sub Rus, Eng + Original Eng

Ответить на тему
 
Автор Сообщение

user ®

Стаж: 7 лет 7 месяцев

Сообщений: 20008

Пост Пост: #1 от 22-Авг-2015 18:51

[Цитировать]

Станцуем, крошка! / Энгус / Angus
Страна: США, Великобритания, Германия, Франция
Студия: Atlas Entertainment, BBC Television Centre, New Line Cinema и др.
Жанр: драма, комедия
Год выпуска: 1995
Продолжительность: 01:30:16
Перевод: Профессиональный (двухголосый закадровый)
Cубтитры: русские, английские
Оригинальная аудиодорожка: английский
Режиссер: Патрик Рид Джонсон / Patrick Read Johnson
В ролях: Перри Анзилотти, Кэти Бейтс, Роберт Кертис-Браун, Кевин Коннолли, Тони Денман, Ивет Фриман, Салим Грант, Эпата Харрис, Стивен Хартман, Робин Линн Хит
Описание: Лучший защитник школьной футбольной команды, 15-летний Энгус тайно влюблен в самую красивую девочку в школе, Мелиссу. Энгус очень застенчив и считает, что у него нет шансов завоевать ее сердце. И все потому, что он толстоват, и над ним и его преданным, но очень маленьким и ушастым другом Троем постоянно смеются и издеваются ребята во главе с «золотым мальчиком» Риком. Тем самым парнем, с которым встречается Мелисса. И именно Рик подстроил дело так, что Энгуса выбрали «королем танца», и на школьном балу он должен будет весь вечер танцевать с Мелиссой. Казалось бы, сбылось его желание прикоснуться к «девушке своей мечты». Но вся беда в том, что увалень Энгус совершенно не умеет танцевать…
Доп. информация: За русскую дорожку спасибо Ralemma.

Sample
Тип релиза: WEB-DL 720p
Контейнер: MKV
Видео: MPEG4 AVC Video, H264, 16:9, 1276x720, 23.976 fps, 3984 kbps
Аудио: Russian (AC3, 2 ch, 224 kbps, 16 bits, 48.0 KHz) - DVO
Аудио 2: English (AC3, 2 ch, 192 kbps, 16 bits, 48.0 KHz) - оригинал
Формат субтитров: softsub (SRT)

MediaInfo
General
Unique ID : 196863327134159199210189553350243319852 (0x941A7F672A7CE16DBA655E9A18A5002C)
Complete name : K:\Angus 1995 WEB-DL 720p.mkv
Format : Matroska
Format version : Version 4 / Version 2
File size : 2.83 GiB
Duration : 1h 30mn
Overall bit rate : 4 489 Kbps
Encoded date : UTC 2015-08-19 09:11:36
Writing application : mkvmerge v6.1.0 ('Old Devil') built on Mar 2 2013 14:32:37
Writing library : libebml v1.3.0 + libmatroska v1.4.0
Video
ID : 1
Format : AVC
Format/Info : Advanced Video Codec
Format profile : High@L3.1
Format settings, CABAC : No
Format settings, ReFrames : 2 frames
Codec ID : V_MPEG4/ISO/AVC
Duration : 1h 30mn
Bit rate : 3 984 Kbps
Width : 1 276 pixels
Height : 720 pixels
Display aspect ratio : 16:9
Frame rate mode : Constant
Frame rate : 23.976 fps
Color space : YUV
Chroma subsampling : 4:2:0
Bit depth : 8 bits
Scan type : Progressive
Bits/(Pixel*Frame) : 0.181
Stream size : 2.51 GiB (89%)
Language : English
Default : Yes
Forced : No
Color primaries : BT.709
Transfer characteristics : BT.709
Matrix coefficients : BT.709
Audio #1
ID : 2
Format : AC-3
Format/Info : Audio Coding 3
Mode extension : CM (complete main)
Format settings, Endianness : Big
Codec ID : A_AC3
Duration : 1h 30mn
Bit rate mode : Constant
Bit rate : 224 Kbps
Channel count : 2 channels
Channel positions : Front: L R
Sampling rate : 48.0 KHz
Bit depth : 16 bits
Compression mode : Lossy
Stream size : 145 MiB (5%)
Language : Russian
Default : Yes
Forced : Yes
Audio #2
ID : 3
Format : AC-3
Format/Info : Audio Coding 3
Mode extension : CM (complete main)
Format settings, Endianness : Big
Codec ID : A_AC3
Duration : 1h 30mn
Bit rate mode : Constant
Bit rate : 192 Kbps
Channel count : 2 channels
Channel positions : Front: L R
Sampling rate : 48.0 KHz
Bit depth : 16 bits
Compression mode : Lossy
Stream size : 124 MiB (4%)
Language : English
Default : No
Forced : No
Text #1
ID : 4
Format : UTF-8
Codec ID : S_TEXT/UTF8
Codec ID/Info : UTF-8 Plain Text
Language : Russian
Default : No
Forced : No
Text #2
ID : 5
Format : UTF-8
Codec ID : S_TEXT/UTF8
Codec ID/Info : UTF-8 Plain Text
Language : English
Default : No
Forced : No
Menu
00:00:00.000 : en:Chapter 1
00:10:00.000 : en:Chapter 2
00:20:00.000 : en:Chapter 3
00:30:00.000 : en:Chapter 4
00:40:00.000 : en:Chapter 5
00:50:00.000 : en:Chapter 6
01:00:00.000 : en:Chapter 7
01:10:00.000 : en:Chapter 8
01:20:00.000 : en:Chapter 9
Скриншоты
Скачать

Скачать торрент!

Как скачивать? · Что такое торрент? · Рейтинг и ограничения

Сайт не распространяет и не хранит электронные версии произведений, а лишь предоставляет доступ к создаваемому пользователями каталогу ссылок на торрент-файлы, которые содержат только списки хеш-сумм

[Профиль] [ЛС]
Показать сообщения:    
Ответить на тему

Текущее время: Сегодня 12:09

Часовой пояс: GMT + 4



Вы не можете начинать темы
Вы не можете отвечать на сообщения
Вы не можете редактировать свои сообщения
Вы не можете удалять свои сообщения
Вы не можете голосовать в опросах
Вы не можете прикреплять файлы к сообщениям
Вы не можете скачивать файлы