Ученик чародея / The Sorcerer's Apprentice (Джон Тёртелтауб / Jon Turteltaub) [2010, США, Боевик, Фэнтези, Комедия, Приключения, HDRip] DUB (лицензия)

Ответить на тему
 
Автор Сообщение

user ®

Стаж: 7 лет 7 месяцев

Сообщений: 20008

Пост Пост: #1 от 19-Ноя-2010 13:55

[Цитировать]

Ученик чародея / The Sorcerer's Apprentice
Страна: США
Студия: Walt Disney Pictures
Жанр: Боевик, Фэнтези, Комедия, Приключения
Год выпуска: 2010
Продолжительность: 01:49:03
Перевод: Профессиональный (дублированный)
Субтитры: нет
Оригинальная аудиодорожка: нет
Режиссер: Джон Тёртелтауб / Jon Turteltaub
В ролях: Николас Кейдж /Nicolas Cage/, Джей Барушель /Jay Baruchel/, Альфред Молина /Alfred Molina/, Тереза Палмер /Teresa Palmer/, Тоби Кеббелл /Toby Kebbell/, Омар Бенсон Миллер /Omar Benson Miller/, Моника Беллуччи /Monica Bellucci/, Элис Крайдж /Alice Krige/, Джэйк Черри /Jake Cherry/, Джеймс А. Стефенс /James A. Stephens...
Описание: Манхэттен, наши дни. Мастер магии Бальтазар Блэйк пытается защитить Нью-Йорк от своего старого врага Максима Хорвата — злобного колдуна с самыми черными планами. Однако, Бальтазар чувствует, что не справится один и ему нужен помощник. На эту роль он выбирает самого обычного парня Дэйва, который вовсе не хочет спасать мир. Однако ему придется пройти ускоренный курс магии и вступить в битву.

Бюджет: $150 000 000

Тип релиза: HDRip, источник: The.Sorcerer's.Apprentice.2010.BluRay.1080p.DTS.x264-CHD, звук из релиза группы
Контейнер: AVI
Видео: 720x304 (2.40:1), 23.976 fps, XVID ~1520 kbps avg, 0.290 bit/pixel
Аудио : 48 kHz, AC3, 6 ch, 384.00 kbps Constant

MediaInfo

General
Complete name : Uchenik.charodeja.2010.D.HDRip.avi
Format : AVI
Format/Info : Audio Video Interleave
File size : 1.46 GiB
Duration : 1h 49mn
Overall bit rate : 1 913 Kbps
Writing application : VirtualDubMod 1.5.10.3 (build 2550/release)
Writing library : VirtualDubMod build 2550/release
Video
ID : 0
Format : MPEG-4 Visual
Format profile : Advanced Simple@L5
Format settings, BVOP : Yes
Format settings, QPel : No
Format settings, GMC : No warppoints
Format settings, Matrix : Custom
Codec ID : XVID
Codec ID/Hint : XviD
Duration : 1h 49mn
Bit rate : 1 520 Kbps
Width : 720 pixels
Height : 304 pixels
Display aspect ratio : 2.40:1
Frame rate : 23.976 fps
Color space : YUV
Chroma subsampling : 4:2:0
Bit depth : 8 bits
Scan type : Progressive
Bits/(Pixel*Frame) : 0.290
Stream size : 1.16 GiB (79%)
Writing library : XviD 1.2.1 (UTC 2008-12-04)
Audio
ID : 1
Format : AC-3
Format/Info : Audio Coding 3
Mode extension : CM (complete main)
Codec ID : 2000
Duration : 1h 49mn
Bit rate mode : Constant
Bit rate : 384 Kbps
Channel(s) : 6 channels
Channel positions : Front: L C R, Side: L R, LFE
Sampling rate : 48.0 KHz
Bit depth : 16 bits
Stream size : 299 MiB (20%)
Alignment : Split accross interleaves
Interleave, duration : 42 ms (1.00 video frame)
Interleave, preload duration : 500 ms

Скриншот с названием

Скриншоты

Скачать

Скачать торрент!

Как скачивать? · Что такое торрент? · Рейтинг и ограничения

Сайт не распространяет и не хранит электронные версии произведений, а лишь предоставляет доступ к создаваемому пользователями каталогу ссылок на торрент-файлы, которые содержат только списки хеш-сумм

[Профиль] [ЛС]
Показать сообщения:    
Ответить на тему

Текущее время: Сегодня 10:07

Часовой пояс: GMT + 4



Вы не можете начинать темы
Вы не можете отвечать на сообщения
Вы не можете редактировать свои сообщения
Вы не можете удалять свои сообщения
Вы не можете голосовать в опросах
Вы не можете прикреплять файлы к сообщениям
Вы не можете скачивать файлы