Опаловая мечта / Opal Dream (Питер Каттанео / Peter Cattaneo) [2006, Австралия, Великобритания, драма, семейный, WEB-DL 720p] Sub Rus, Eng + Original Eng

Ответить на тему
 
Автор Сообщение

user ®

Стаж: 7 лет 7 месяцев

Сообщений: 20008

Пост Пост: #1 от 22-Авг-2015 18:51

[Цитировать]

Опаловая мечта / Opal Dream
Страна: Австралия, Великобритания
Студия: Academy Features Ltd., BBC Films и др.
Жанр: драма, семейный
Год выпуска: 2006
Продолжительность: 01:25:40
Перевод: Субтитры vsasha
Cубтитры: русские, английские
Оригинальная аудиодорожка: английский
Режиссер: Питер Каттанео / Peter Cattaneo
В ролях: Сапфир Бойс, Кристиан Байерс, Винс Колосимо, Жаклин МакКензи, Роберт Морган, Анна Линарелло, Денис Робертс, Питер Каллэн, Стивен Поттер, Шарни Хонор
Описание: История одной австралийской семьи в небольшом выжженном солнцем провинциальном шахтёрском городке. У их младшей дочери, девятилетней Келлиэнн, обладающей богатым воображением, совсем нет друзей, кроме двух воображаемых ей, которых она называет Динган и Побби. Она настолько привязана к ним, что её мать ставит две лишние тарелки за обеденным столом, а в школе все смеются и передразнивают её, когда она входит в класс, держась за руки со своими воображаемыми друзьями.
Пытаясь вернуть её к реальности и стремясь дать возможность обзавестись настоящими друзьями, мать Келлиэнн приводит её на соседскую вечеринку, а отец с её согласия уводит вымышленных друзей на опаловую шахту, которую он безуспешно разрабатывает. С этого момента их относительно спокойная жизнь рушится прямо на глазах. Девочка убеждена, что отец потерял её друзей, и, когда они возвращаются в шахту, его обвиняют в попытке кражи у другого старателя.
Неспособная вернуться к нормальной жизни после потери своих единственных друзей, Келлиэнн тяжело заболевает. В этот критический момент её старший брат, одиннадцатилетний Эшмол, понимает, что он должен что-то сделать, чтобы помочь своей сестре. Он убеждает сестру, что верит ей, и отправляется в город, пытаясь найти пропавших друзей и убедить остальных в их существовании или хотя бы на время притвориться, что они тоже верят ей.


Sample
Тип релиза: WEB-DL 720p
Контейнер: MKV
Видео: MPEG4 AVC Video, H264, 16:9, 1280x694, 23.976 fps, 3953 kbps
Аудио: English (AC3, 6 ch, 384 kbps, 16 bits, 48.0 KHz) - оригинал
Формат субтитров: softsub (SRT)

MediaInfo
General
Unique ID : 212508700846120267584451653571609087135 (0x9FDFAFE1DE75DF9CB6406605FE4BCC9F)
Complete name : K:\Opal Dream 2005 WEB-DL 720p.mkv
Format : Matroska
Format version : Version 4 / Version 2
File size : 2.65 GiB
Duration : 1h 25mn
Overall bit rate : 4 425 Kbps
Encoded date : UTC 2015-08-19 05:31:48
Writing application : mkvmerge v6.1.0 ('Old Devil') built on Mar 2 2013 14:32:37
Writing library : libebml v1.3.0 + libmatroska v1.4.0
Video
ID : 1
Format : AVC
Format/Info : Advanced Video Codec
Format profile : High@L3.1
Format settings, CABAC : No
Format settings, ReFrames : 2 frames
Codec ID : V_MPEG4/ISO/AVC
Duration : 1h 25mn
Bit rate : 3 953 Kbps
Width : 1 280 pixels
Height : 694 pixels
Display aspect ratio : 1.85:1
Frame rate mode : Constant
Frame rate : 23.976 fps
Color space : YUV
Chroma subsampling : 4:2:0
Bit depth : 8 bits
Scan type : Progressive
Bits/(Pixel*Frame) : 0.186
Stream size : 2.37 GiB (89%)
Language : English
Default : Yes
Forced : No
Color primaries : BT.709
Transfer characteristics : BT.709
Matrix coefficients : BT.709
Audio
ID : 2
Format : AC-3
Format/Info : Audio Coding 3
Mode extension : CM (complete main)
Format settings, Endianness : Big
Codec ID : A_AC3
Duration : 1h 25mn
Bit rate mode : Constant
Bit rate : 384 Kbps
Channel count : 6 channels
Channel positions : Front: L C R, Side: L R, LFE
Sampling rate : 48.0 KHz
Bit depth : 16 bits
Compression mode : Lossy
Stream size : 235 MiB (9%)
Language : English
Default : Yes
Forced : No
Text #1
ID : 3
Format : UTF-8
Codec ID : S_TEXT/UTF8
Codec ID/Info : UTF-8 Plain Text
Language : Russian
Default : Yes
Forced : Yes
Text #2
ID : 4
Format : UTF-8
Codec ID : S_TEXT/UTF8
Codec ID/Info : UTF-8 Plain Text
Language : English
Default : No
Forced : No
Menu
00:00:00.000 : en:1
00:04:21.000 : en:2
00:10:28.000 : en:3
00:14:41.000 : en:4
00:19:24.000 : en:5
00:24:22.000 : en:6
00:28:01.000 : en:7
00:30:55.000 : en:8
00:34:21.000 : en:9
00:41:51.000 : en:10
00:44:46.000 : en:11
00:48:29.000 : en:12
00:54:19.000 : en:13
00:59:13.000 : en:14
01:05:40.000 : en:15
01:09:47.000 : en:16
01:16:01.000 : en:17
01:19:41.000 : en:18
Скриншоты
Скачать

Скачать торрент!

Как скачивать? · Что такое торрент? · Рейтинг и ограничения

Сайт не распространяет и не хранит электронные версии произведений, а лишь предоставляет доступ к создаваемому пользователями каталогу ссылок на торрент-файлы, которые содержат только списки хеш-сумм

[Профиль] [ЛС]
Показать сообщения:    
Ответить на тему

Текущее время: Сегодня 15:38

Часовой пояс: GMT + 4



Вы не можете начинать темы
Вы не можете отвечать на сообщения
Вы не можете редактировать свои сообщения
Вы не можете удалять свои сообщения
Вы не можете голосовать в опросах
Вы не можете прикреплять файлы к сообщениям
Вы не можете скачивать файлы