Грозовой перевал / Wuthering Heights (Питер Космински / Peter Kosminsky) [1992, США, мелодрама, WEB-DL 720p] DVO (НТВ+) + MVO (ОРТ) + AVO (А. Гаврилов) + Sub Eng + Original Eng

Ответить на тему
 
Автор Сообщение

user ®

Стаж: 7 лет 7 месяцев

Сообщений: 20008

Пост Пост: #1 от 22-Авг-2015 18:51

[Цитировать]

Грозовой перевал / Wuthering Heights
Страна: США
Студия: Paramount Pictures
Жанр: мелодрама
Год выпуска: 1992
Продолжительность: 01:46:18
Перевод 1: Профессиональный (двухголосый закадровый) НТВ+
Перевод 2: Профессиональный (многоголосый закадровый) ОРТ
Перевод 3: Авторский (одноголосый закадровый) А. Гаврилов
Cубтитры: английские
Оригинальная аудиодорожка: английский
Режиссер: Питер Космински / Peter Kosminsky
В ролях: Жюльет Бинош, Рэйф Файнс, Джанет МакТир, Софи Уорд, Саймон Шепард, Джереми Нортэм, Джейсон Риддингтон, Саймон Уорд, Дик Салливан, Роберт Демеджер
Описание: Ничто не тревожило уединенной жизни Кэти и Хиндли, родных брата и сестры живущих в отдаленном поместье вместе со своим отцом, до тех пор пока, однажды старик не привел в их дом Хитклифа, бездомного парня, которого он подобрал умирающим от голода в Ливерпуле и решил приютить.
С этого момента страсти на «Грозовом перевале» начали неумолимо накаляться. С каждым днем симпатичный Хитклиф завоевывает все больше симпатии и любви от Кэти и ее отца, потребовавшего от детей, чтобы парня приняли в семью и считали ее полноправным членом. И точно так же с каждым днем растет ненависть Хиндли, чувствующего себя замененным. Как только отец умирает, переполняемый ненавистью Хиндли отправляет парня на конюшню.
Кэти любит Хитклифа, но в те далекие времена даже любовь не могла перечеркнуть разницу в социальном положении. Кэти не может выйти замуж за бедного парня и отдает свое сердце другому, богатому соседу давно положившему глаз на симпатичную девушку. Однако так ли легко изменить зову сердца? Отвергнутый Хитклиф, вовсе не собирается прощать нанесенной ему обиды и готов посвятить всю жизнь тому, чтобы отомстить за свою несчастную любовь и унижения, не подозревая, что далеко не каждая месть может принести удовлетворение...
II Сэмпл II IMDB II
Доп. информация:
За перевод НТВ+ спасибо porhaleks
За перевод А. Гаврилова спасибо Tanitra84
Перевод ОРТ взят с раздачи Нордер
Тип релиза: WEB-DL 720p
Контейнер: MKV
Видео: AVC / 1278x720 / 16:9 / 23.976fps / Bit rate 3970Kbps
Аудио 1: AC3 / 48.0 KHz / 2ch. / 192kbps / rus / dvo / НТВ+
Аудио 2: AC3 / 48.0 KHz / 2ch. / 192kbps / rus / mvo / ОРТ
Аудио 3: AC3 / 48.0 KHz / 2ch. / 192kbps / rus / avo / А. Гаврилов
Аудио 4: AC3 / 48.0 KHz / 6ch. / 384kbps / eng
Формат субтитров: softsub (SRT)
MediaInfo
Общее
Уникальный идентификатор : 182318538044412523710569910524049419199 (0x892945EF5D55A1B8AA7F7717AFF0EBBF)
Полное имя : G:\!!!_torrent\Wuthering.Heights.1992.WEB-DL.720p_by_vedigo.mkv
Формат : Matroska
Версия формата : Version 4 / Version 2
Размер файла : 3,73 Гбайт
Продолжительность : 1 ч. 46 м.
Общий поток : 5026 Кбит/сек
Название фильма : Wuthering.Heights.1992.WEB-DL.720p_by_vedigo
Дата кодирования : UTC 2015-08-20 01:22:40
Программа кодирования : mkvmerge v8.3.0 ('Over the Horizon') 64bit
Библиотека кодирования : libebml v1.3.1 + libmatroska v1.4.2
Attachements : cover.jpg / cover_land.jpg / small_cover.jpg / small_cover_land.jpg
DURATION : 01:46:18.304000000
NUMBER_OF_FRAMES : 199322
NUMBER_OF_BYTES : 153079296
_STATISTICS_WRITING_APP : mkvmerge v8.3.0 ('Over the Horizon') 64bit
_STATISTICS_WRITING_DATE_UTC : 2015-08-20 01:22:40
_STATISTICS_TAGS : BPS DURATION NUMBER_OF_FRAMES NUMBER_OF_BYTES
Видео
Идентификатор : 1
Формат : AVC
Формат/Информация : Advanced Video Codec
Профиль формата : High@L3.1
Параметр CABAC формата : Нет
Параметр ReFrames формата : 2 кадра
Идентификатор кодека : V_MPEG4/ISO/AVC
Продолжительность : 1 ч. 46 м.
Битрейт : 3966 Кбит/сек
Ширина : 1278 пикселей
Высота : 720 пикселей
Соотношение сторон : 16:9
Режим частоты кадров : Постоянный
Частота кадров : 23,976 кадра/сек
Цветовое пространство : YUV
Субдискретизация насыщенности : 4:2:0
Битовая глубина : 8 бит
Тип развёртки : Прогрессивная
Бит/(Пиксели*Кадры) : 0.180
Размер потока : 2,95 Гбайт (79%)
Заголовок : Wuthering.Heights.1992.WEB-DL.720p_by_vedigo
Default : Да
Forced : Нет
Цветовой диапазон : Limited
Основные цвета : BT.709
Характеристики трансфера : BT.709
Коэффициенты матрицы : BT.709
Аудио #1
Идентификатор : 2
Формат : AC-3
Формат/Информация : Audio Coding 3
Расширение режима : CM (complete main)
Параметр Endianness формата : Big
Идентификатор кодека : A_AC3
Продолжительность : 1 ч. 46 м.
Вид битрейта : Постоянный
Битрейт : 192 Кбит/сек
Каналы : 2 канала
Расположение каналов : Front: L R
Частота : 48,0 КГц
Метод сжатия : С потерями
Размер потока : 146 Мбайт (4%)
Заголовок : DVO @ НТВ+
Язык : Russian
Default : Нет
Forced : Нет
Аудио #2
Идентификатор : 3
Формат : AC-3
Формат/Информация : Audio Coding 3
Расширение режима : CM (complete main)
Параметр Endianness формата : Big
Идентификатор кодека : A_AC3
Продолжительность : 1 ч. 46 м.
Вид битрейта : Постоянный
Битрейт : 192 Кбит/сек
Каналы : 2 канала
Расположение каналов : Front: L R
Частота : 48,0 КГц
Метод сжатия : С потерями
Размер потока : 146 Мбайт (4%)
Заголовок : MVO @ ОРТ
Язык : Russian
Default : Нет
Forced : Нет
Аудио #3
Идентификатор : 4
Формат : AC-3
Формат/Информация : Audio Coding 3
Расширение режима : CM (complete main)
Параметр Endianness формата : Big
Идентификатор кодека : A_AC3
Продолжительность : 1 ч. 46 м.
Вид битрейта : Постоянный
Битрейт : 192 Кбит/сек
Каналы : 2 канала
Расположение каналов : Front: L R
Частота : 48,0 КГц
Метод сжатия : С потерями
Размер потока : 146 Мбайт (4%)
Заголовок : AVO @ А. Гаврилов
Язык : Russian
Default : Нет
Forced : Нет
Аудио #4
Идентификатор : 5
Формат : AC-3
Формат/Информация : Audio Coding 3
Расширение режима : CM (complete main)
Параметр Endianness формата : Big
Идентификатор кодека : A_AC3
Продолжительность : 1 ч. 46 м.
Вид битрейта : Постоянный
Битрейт : 384 Кбит/сек
Каналы : 6 каналов
Расположение каналов : Front: L C R, Side: L R, LFE
Частота : 48,0 КГц
Метод сжатия : С потерями
Размер потока : 292 Мбайт (8%)
Заголовок : original
Язык : English
Default : Нет
Forced : Нет
Текст
Идентификатор : 6
Формат : UTF-8
Идентификатор кодека : S_TEXT/UTF8
Идентификатор кодека/Информация : UTF-8 Plain Text
Заголовок : subtitle eng
Язык : English
Default : Нет
Forced : Нет
Меню
00:00:00.000 : en:1
00:02:19.000 : en:2
00:08:32.000 : en:3
00:12:30.000 : en:4
00:14:59.000 : en:5
00:18:18.000 : en:6
00:22:24.000 : en:7
00:28:24.000 : en:8
00:31:14.000 : en:9
00:36:54.000 : en:10
00:38:32.000 : en:11
00:43:58.000 : en:12
00:46:26.000 : en:13
00:50:33.000 : en:14
00:55:44.000 : en:15
00:59:03.000 : en:16
01:02:34.000 : en:17
01:06:11.000 : en:18
01:11:23.000 : en:19
01:19:32.000 : en:20
01:23:06.000 : en:21
01:27:59.000 : en:22
01:33:20.000 : en:23
01:37:18.000 : en:24
01:43:22.000 : en:25
Скриншоты
Скрины:

Скачать

Скачать торрент!

Как скачивать? · Что такое торрент? · Рейтинг и ограничения

Сайт не распространяет и не хранит электронные версии произведений, а лишь предоставляет доступ к создаваемому пользователями каталогу ссылок на торрент-файлы, которые содержат только списки хеш-сумм

[Профиль] [ЛС]
Показать сообщения:    
Ответить на тему

Текущее время: Сегодня 09:48

Часовой пояс: GMT + 4



Вы не можете начинать темы
Вы не можете отвечать на сообщения
Вы не можете редактировать свои сообщения
Вы не можете удалять свои сообщения
Вы не можете голосовать в опросах
Вы не можете прикреплять файлы к сообщениям
Вы не можете скачивать файлы