Белая графиня / White Countess, The (Джеймс Айвори / James Ivory) [2005, Великобритания, США, Германия, Китай, мелодрама, драма, военный, история, WEB-DL 720p] MVO + Sub Rus, Eng + Original Eng

Ответить на тему
 
Автор Сообщение

user ®

Стаж: 7 лет 7 месяцев

Сообщений: 20008

Пост Пост: #1 от 22-Авг-2015 18:51

[Цитировать]

Белая графиня / White Countess, The
Страна: Великобритания, США, Германия, Китай
Студия: Merchant Ivory Productions, Sony Pictures Classics, Shanghai Film Group
Жанр: мелодрама, драма, военный, история
Год выпуска: 2005
Продолжительность: 02:15:35
Перевод: Профессиональный (многоголосый закадровый)
Cубтитры: русские, английские
Оригинальная аудиодорожка: английский
Режиссер: Джеймс Айвори / James Ivory
В ролях: Рэйф Файнс, Наташа Ричардсон, Ванесса Редгрэйв, Линн Редгрэйв, Мадлен Поттер, Хироюки Санада, Джон Вуд, Мадлен Дэйли, Аллен Корданер, Луойонг Ванг...
Описание: Действие фильма разворачивается в конце 30-х годов в Шанхае. Ослепший американский дипломат страстно влюбляется в эмигрировавшую из Советской России овдовевшую красавицу-графиню которая всеми силами старается поддержать семью своего покойного мужа. Она готова на все даже на то чтобы преступить закон...
II Сэмпл II IMDB II
Доп. информация:
За перевод и субтитры спасибо germanm2000
Тип релиза: WEB-DL 720p
Контейнер: MKV
Видео: AVC / 1280x720 / 16:9 / 23,976 fps / Bit rate 4034Kbps
Аудио 1: AC3 / 48.0 KHz / 6ch. / 448kbps / rus / mvo
Аудио 2: AC3 / 48.0 KHz / 6ch. / 448kbps / eng / DVD
Аудио 3: AC3 / 48.0 KHz / 2ch. / 127kbps / eng / WEB-DL.720p
Формат субтитров: softsub (SRT)
MediaInfo
Общее
Уникальный идентификатор : 231248631721884442667168180406738783143 (0xADF8DDCF384DE154981F8284F7A48BA7)
Полное имя : G:\!!!_torrent\The.White.Countess.2005.WEB-DL.720p_by_vedigo.mkv
Формат : Matroska
Версия формата : Version 4 / Version 2
Размер файла : 4,87 Гбайт
Продолжительность : 2 ч. 15 м.
Общий поток : 5140 Кбит/сек
Название фильма : The.White.Countess.2005.WEB-DL.720p_by_vedigo
Дата кодирования : UTC 2015-08-20 07:13:31
Программа кодирования : mkvmerge v8.3.0 ('Over the Horizon') 64bit
Библиотека кодирования : libebml v1.3.1 + libmatroska v1.4.2
DURATION : 02:05:59.996000000
NUMBER_OF_FRAMES : 1826
NUMBER_OF_BYTES : 58508
_STATISTICS_WRITING_APP : mkvmerge v8.3.0 ('Over the Horizon') 64bit
_STATISTICS_WRITING_DATE_UTC : 2015-08-20 07:13:31
_STATISTICS_TAGS : BPS DURATION NUMBER_OF_FRAMES NUMBER_OF_BYTES
Видео
Идентификатор : 1
Формат : AVC
Формат/Информация : Advanced Video Codec
Профиль формата : High@L3.1
Параметр CABAC формата : Нет
Параметр ReFrames формата : 2 кадра
Идентификатор кодека : V_MPEG4/ISO/AVC
Продолжительность : 2 ч. 15 м.
Ширина : 1280 пикселей
Высота : 720 пикселей
Соотношение сторон : 16:9
Режим частоты кадров : Постоянный
Частота кадров : 23,976 кадра/сек
Цветовое пространство : YUV
Субдискретизация насыщенности : 4:2:0
Битовая глубина : 8 бит
Тип развёртки : Прогрессивная
Заголовок : The.White.Countess.2005.WEB-DL.720p_by_vedigo
Default : Да
Forced : Нет
Цветовой диапазон : Limited
Основные цвета : BT.709
Характеристики трансфера : BT.709
Коэффициенты матрицы : BT.709
Аудио #1
Идентификатор : 2
Формат : AC-3
Формат/Информация : Audio Coding 3
Расширение режима : CM (complete main)
Параметр Endianness формата : Big
Идентификатор кодека : A_AC3
Продолжительность : 2 ч. 15 м.
Вид битрейта : Постоянный
Битрейт : 448 Кбит/сек
Каналы : 6 каналов
Расположение каналов : Front: L C R, Side: L R, LFE
Частота : 48,0 КГц
Метод сжатия : С потерями
Размер потока : 434 Мбайт (9%)
Заголовок : MVO @ AC3, 6ch
Язык : Russian
Default : Да
Forced : Нет
Аудио #2
Идентификатор : 3
Формат : AC-3
Формат/Информация : Audio Coding 3
Расширение режима : CM (complete main)
Параметр Endianness формата : Big
Идентификатор кодека : A_AC3
Продолжительность : 2 ч. 15 м.
Вид битрейта : Постоянный
Битрейт : 448 Кбит/сек
Каналы : 6 каналов
Расположение каналов : Front: L C R, Side: L R, LFE
Частота : 48,0 КГц
Метод сжатия : С потерями
Размер потока : 434 Мбайт (9%)
Заголовок : original @ DVD
Язык : English
Default : Нет
Forced : Нет
Аудио #3
Идентификатор : 4
Формат : AAC
Формат/Информация : Advanced Audio Codec
Профиль формата : LC
Идентификатор кодека : A_AAC
Продолжительность : 2 ч. 15 м.
Каналы : 2 канала
Расположение каналов : Front: L R
Частота : 48,0 КГц
Метод сжатия : С потерями
Заголовок : original @ WEB-DL.720p
Язык : English
Default : Нет
Forced : Нет
Текст #1
Идентификатор : 5
Формат : UTF-8
Идентификатор кодека : S_TEXT/UTF8
Идентификатор кодека/Информация : UTF-8 Plain Text
Заголовок : subtitle rus
Язык : Russian
Default : Нет
Forced : Нет
Текст #2
Идентификатор : 6
Формат : UTF-8
Идентификатор кодека : S_TEXT/UTF8
Идентификатор кодека/Информация : UTF-8 Plain Text
Заголовок : subtitle eng
Язык : English
Default : Нет
Forced : Нет
Меню
00:00:00.000 : en:Start
00:03:40.000 : en:Passion and Necessity
00:07:55.000 : en:A Failure to See
00:14:55.000 : en:Bar of Dreams
00:18:35.000 : en:A Royal Escort
00:23:18.000 : en:"She's the one."
00:25:22.000 : en:Once Upon a Time
00:27:27.000 : en:Little Comforts
00:29:34.000 : en:Visions of a Better Place
00:32:01.000 : en:Risks and Rewards
00:37:01.000 : en:A Certain Proposal
00:43:57.000 : en:Inescapable Reality
00:47:18.000 : en:The Missing Ingredient
00:51:24.000 : en:Sharing Sad Songs
00:56:47.000 : en:A Familiar Request
01:00:28.000 : en:Too Much Like Mother
01:06:43.000 : en:Politics of Tension
01:11:05.000 : en:Size of the Canvas
01:14:33.000 : en:Old Hats, New Chances
01:22:25.000 : en:Losing Sight
01:27:09.000 : en:An Impassioned Outburst
01:30:22.000 : en:Unkept Promises
01:34:08.000 : en:A Pressing Matter
01:36:57.000 : en:Gaining New Perspective
01:42:32.000 : en:Abandoned
01:51:21.000 : en:Terrible Nature of Things
01:57:37.000 : en:Helping Each Other
02:05:01.000 : en:A Boat Ride Together
Скриншоты
Скачать

Скачать торрент!

Как скачивать? · Что такое торрент? · Рейтинг и ограничения

Сайт не распространяет и не хранит электронные версии произведений, а лишь предоставляет доступ к создаваемому пользователями каталогу ссылок на торрент-файлы, которые содержат только списки хеш-сумм

[Профиль] [ЛС]
Показать сообщения:    
Ответить на тему

Текущее время: Сегодня 05:56

Часовой пояс: GMT + 4



Вы не можете начинать темы
Вы не можете отвечать на сообщения
Вы не можете редактировать свои сообщения
Вы не можете удалять свои сообщения
Вы не можете голосовать в опросах
Вы не можете прикреплять файлы к сообщениям
Вы не можете скачивать файлы