Малыш / Little Boy (Алехандро Гомес Монтеверде / Alejandro Gomez Monteverde) [2015, Мексика, США, Драма, комедия, военный, BDRip] VO

Ответить на тему
 
Автор Сообщение

user ®

Стаж: 7 лет 7 месяцев

Сообщений: 20008

Пост Пост: #1 от 21-Авг-2015 02:39

[Цитировать]

Малыш / Little Boy- Год выпуска: 2015
Выпущено: Мексика, США / Metanoia Films
Жанр: драма, комедия, военный
Продолжительность: 01:46:53
Перевод: Одноголосый закадровый Paul Bunyan
Cубтитры: нет-Режиссер:
Алехандро Гомес Монтеверде / Alejandro Gomez Monteverde-В ролях:
Джейкоб Сальвати (Pepper Flynt Busbee / Little Boy), Эмили Уотсон (Emma Busbee), Кэри-Хироюки Тагава (Hashimoto), Майкл Рапапорт (James Busbee), Дэвид Генри (London Busbee), Бен Чаплин (Ben Eagle), Эдуардо Верастеги (Fr. Crispin), Тед Левайн (Sam), Эли Ландри (Ava), Абрахам Бенруби (Teacup), Кевин Джеймс (Dr. Fox), Том Уилкинсон (Fr. Oliver)-Описание:
Простой американский ребенок пытается сделать невозможное — он хочет, чтобы его отец вернулся со Второй Мировой войны.-Релиз групп [url=http://***/forum/viewtopic.php?t=1677970] [/url] | | IMDB | КиноПоиск | Сэмпл |-Качество: BDRip [Little.Boy.2015.1080p.BluRay.AVC.DTS-HD.MA.5.1-RARBG]
Формат: AVI
Видео: 720x304 (2.37:1), 23.976 fps, XviD build 73 ~1559 kbps avg, 0.30 bit/pixel
Аудио: 48 kHz, AC3 Dolby Digital, 3/2 (L,C,R,l,r) + LFE ch, ~384.00 kbps avg
-Скриншоты MediaInfo
General
Complete name                            : D:\Malysh_2015_BDRip_VO_by_Dalemake.avi
Format                                   : AVI
Format/Info                              : Audio Video Interleave
File size                                : 1.46 GiB
Duration                                 : 1h 46mn
Overall bit rate                         : 1 952 Kbps
Writing application                      : VirtualDubMod 1.5.10.3 | www.virtualdub-fr.org || (build 2550/release)
Writing library                          : VirtualDubMod build 2550/release
Video
ID                                       : 0
Format                                   : MPEG-4 Visual
Format profile                           : Advanced Simple@L5
Format settings, BVOP                    : 1
Format settings, QPel                    : No
Format settings, GMC                     : No warppoints
Format settings, Matrix                  : Custom
Codec ID                                 : XVID
Codec ID/Hint                            : XviD
Duration                                 : 1h 46mn
Bit rate                                 : 1 559 Kbps
Width                                    : 720 pixels
Height                                   : 304 pixels
Display aspect ratio                     : 2.35:1
Frame rate                               : 23.976 fps
Color space                              : YUV
Chroma subsampling                       : 4:2:0
Bit depth                                : 8 bits
Scan type                                : Progressive
Compression mode                         : Lossy
Bits/(Pixel*Frame)                       : 0.297
Stream size                              : 1.16 GiB (80%)
Writing library                          : XviD 73
Audio
ID                                       : 1
Format                                   : AC-3
Format/Info                              : Audio Coding 3
Mode extension                           : CM (complete main)
Format settings, Endianness              : Big
Codec ID                                 : 2000
Duration                                 : 1h 46mn
Bit rate mode                            : Constant
Bit rate                                 : 384 Kbps
Channel(s)                               : 6 channels
Channel positions                        : Front: L C R, Side: L R, LFE
Sampling rate                            : 48.0 KHz
Bit depth                                : 16 bits
Compression mode                         : Lossy
Delay relative to video                  : 24ms
Stream size                              : 293 MiB (20%)
Alignment                                : Split accross interleaves
Interleave, duration                     : 42 ms (1.00 video frame)
Interleave, preload duration             : 500 ms
-
Скачать

Скачать торрент!

Как скачивать? · Что такое торрент? · Рейтинг и ограничения

Сайт не распространяет и не хранит электронные версии произведений, а лишь предоставляет доступ к создаваемому пользователями каталогу ссылок на торрент-файлы, которые содержат только списки хеш-сумм

[Профиль] [ЛС]
Показать сообщения:    
Ответить на тему

Текущее время: Сегодня 18:06

Часовой пояс: GMT + 4



Вы не можете начинать темы
Вы не можете отвечать на сообщения
Вы не можете редактировать свои сообщения
Вы не можете удалять свои сообщения
Вы не можете голосовать в опросах
Вы не можете прикреплять файлы к сообщениям
Вы не можете скачивать файлы