Солдат с другой планеты / Пришелец / Zone Troopers (Дэнни Билсон / Danny Bilson) [1985, США, фантастика, военный, BDRemux 1080p] MVO + DVO + Original Eng

Ответить на тему
 
Автор Сообщение

user ®

Стаж: 7 лет 7 месяцев

Сообщений: 20008

Пост Пост: #1 от 19-Авг-2015 04:15

[Цитировать]

Солдат с другой планеты / Пришелец / Zone Troopers
Страна: США
Студия: Altar Productions, Empire Pictures
Жанр: фантастика, военный
Год выпуска: 1985
Продолжительность: 01:25:52
Перевод: Профессиональный (многоголосый закадровый) Селена Интернейшнл по заказу СТС
Перевод 2: Профессиональный (двухголосый закадровый) НТВ+
Cубтитры: нет
Оригинальная аудиодорожка: английский
Режиссер: Дэнни Билсон / Danny Bilson
В ролях: Тим Томерсон, Тимоти Ван Паттен, Арт ЛаФлёр, Бифф Мэнард, Уильям Полсон, Петер Бом, Макс Турилли, Юджин Брелл, Джон Лимер, Брюс МакГуайр
Описание: Италия, зима 1944 года. Подразделение американской армии попадает в засаду немцев. После боя в живых остаются лишь четверо американцев. Заблудившись в лесу, они страдают от холода и голода, но готовы как можно дороже продать свои жизни. Вдруг неподалеку от них совершает аварийную посадку инопланетный космический корабль!
Правда, вначале солдаты отказываются верить своим глазам, и только Малыш, любитель газетно-журнальных комиксов и фантастическо-приключенческой литературы, сразу понимает, что к чему. Обнаружив, что один из пилотов корабля остался жив, американцы прочесывают лес и находят пришельца, но на этом их приключения только начинаются.
Впереди будут «бои местного значения», кратковременный плен, чудодейственное спасение, общение с пришельцем, способным исполнять любые желания, и относительно крупное сражение с применением инопланетных аннигиляторов.


Sample
Тип релиза: BDRemux 1080p
Контейнер: MKV
Видео: MPEG4 AVC Video, H264, 16:9, 1920x1080, 23.976 fps, 24982 Kbps
Аудио: Russian (AC3, 2 ch, 192 kbps, 16 bits, 48.0 KHz) - Селена Интернейшнл
Аудио 2: Russian (AC3, 2 ch, 192 kbps, 16 bits, 48.0 KHz) - НТВ+
Аудио 3: English (DTS-HD MA, 2 ch, 1708 kbps, 16 bits, 48.0 KHz / DTS core: 2 ch, 1509 kbps, 16 bits, 48.0 KHz) - оригинал
Аудио 4: English (AC3, 2 ch, 256 kbps, 16 bits, 48.0 KHz) - комментарии

MediaInfo
General
Unique ID : 242056196355841060208399347235798764629 (0xB61A53E2BEF88DACB9336C4EC391CC55)
Complete name : E:\Zone Troopers 1985 BDRemux 1080p.mkv
Format : Matroska
Format version : Version 4 / Version 2
File size : 16.4 GiB
Duration : 1h 25mn
Overall bit rate mode : Variable
Overall bit rate : 27.3 Mbps
Encoded date : UTC 2015-08-17 05:26:37
Writing application : mkvmerge v6.1.0 ('Old Devil') built on Mar 2 2013 14:32:37
Writing library : libebml v1.3.0 + libmatroska v1.4.0
Video
ID : 1
Format : AVC
Format/Info : Advanced Video Codec
Format profile : High@L4.1
Format settings, CABAC : Yes
Format settings, ReFrames : 4 frames
Format settings, GOP : M=3, N=24
Codec ID : V_MPEG4/ISO/AVC
Duration : 1h 25mn
Bit rate mode : Variable
Maximum bit rate : 35.0 Mbps
Width : 1 920 pixels
Height : 1 080 pixels
Display aspect ratio : 16:9
Frame rate mode : Constant
Frame rate : 23.976 fps
Standard : NTSC
Color space : YUV
Chroma subsampling : 4:2:0
Bit depth : 8 bits
Scan type : Progressive
Language : English
Default : Yes
Forced : No
Color primaries : BT.709
Transfer characteristics : BT.709
Matrix coefficients : BT.709
Audio #1
ID : 2
Format : AC-3
Format/Info : Audio Coding 3
Mode extension : CM (complete main)
Format settings, Endianness : Big
Codec ID : A_AC3
Duration : 1h 25mn
Bit rate mode : Constant
Bit rate : 192 Kbps
Channel count : 2 channels
Channel positions : Front: L R
Sampling rate : 48.0 KHz
Bit depth : 16 bits
Compression mode : Lossy
Stream size : 118 MiB (1%)
Title : Стс
Language : Russian
Default : Yes
Forced : Yes
Audio #2
ID : 3
Format : AC-3
Format/Info : Audio Coding 3
Mode extension : CM (complete main)
Format settings, Endianness : Big
Codec ID : A_AC3
Duration : 1h 25mn
Bit rate mode : Constant
Bit rate : 192 Kbps
Channel count : 2 channels
Channel positions : Front: L R
Sampling rate : 48.0 KHz
Bit depth : 16 bits
Compression mode : Lossy
Stream size : 118 MiB (1%)
Title : Нтв+
Language : Russian
Default : No
Forced : No
Audio #3
ID : 4
Format : DTS
Format/Info : Digital Theater Systems
Format profile : MA / Core
Mode : 16
Format settings, Endianness : Big
Codec ID : A_DTS
Duration : 1h 25mn
Bit rate mode : Variable
Bit rate : Unknown / 1 509 Kbps
Channel count : 2 channels
Channel positions : Front: L R
Sampling rate : 48.0 KHz
Bit depth : 16 bits
Compression mode : Lossless / Lossy
Language : English
Default : No
Forced : No
Audio #4
ID : 5
Format : AC-3
Format/Info : Audio Coding 3
Format profile : Dolby Digital
Mode extension : CM (complete main)
Format settings, Endianness : Big
Codec ID : A_AC3
Duration : 1h 25mn
Bit rate mode : Constant
Bit rate : 256 Kbps
Channel count : 2 channels
Channel positions : Front: L R
Sampling rate : 48.0 KHz
Bit depth : 16 bits
Compression mode : Lossy
Stream size : 157 MiB (1%)
Title : комментарии
Language : English
Default : No
Forced : No
Скриншоты
Скачать

Скачать торрент!

Как скачивать? · Что такое торрент? · Рейтинг и ограничения

Сайт не распространяет и не хранит электронные версии произведений, а лишь предоставляет доступ к создаваемому пользователями каталогу ссылок на торрент-файлы, которые содержат только списки хеш-сумм

[Профиль] [ЛС]
Показать сообщения:    
Ответить на тему

Текущее время: Сегодня 14:26

Часовой пояс: GMT + 4



Вы не можете начинать темы
Вы не можете отвечать на сообщения
Вы не можете редактировать свои сообщения
Вы не можете удалять свои сообщения
Вы не можете голосовать в опросах
Вы не можете прикреплять файлы к сообщениям
Вы не можете скачивать файлы