Джефферсон в Париже / Jefferson in Paris (Джеймс Айвори / James Ivory) [1995, Франция, США, драма, мелодрама, биография, история, WEB-DL 720p] DVO + Sub Eng + Original Eng

Ответить на тему
 
Автор Сообщение

user ®

Стаж: 7 лет 7 месяцев

Сообщений: 20008

Пост Пост: #1 от 19-Авг-2015 04:15

[Цитировать]

Джефферсон в Париже / Jefferson in Paris
Страна: Франция, США
Студия: Touchstone Pictures
Жанр: драма, мелодрама, биография, история
Год выпуска: 1995
Продолжительность: 02:19:24
Перевод: Профессиональный (двухголосый закадровый)
Cубтитры: английские
Оригинальная аудиодорожка: английский
Режиссер: Джеймс Айвори / James Ivory
В ролях: Ник Нолте, Гретта Скакки, Гвинет Пэлтроу, Тэнди Ньютон, Сет Гиллиам, Тодд Бойс, Найджел Витми, Николя Сильбер, Ламбер Вилсон, Венсан Кассель
Описание: Посол Соединенных Штатов Америки во Франции Томас Джефферсон приезжает в Париж накануне Великой французской революции. Высший свет еще живет красивой и роскошной жизнью. На этом фоне и происходит знакомство Джефферсона с людьми и нравами страны, случаются встречи без скуки и морализаторства. Томас обретает и врагов, и друзей, наблюдая за тем, как некогда мощное государство быстро катится к своему закату…

Sample
Тип релиза: WEB-DL 720p
Контейнер: MKV
Видео: MPEG4 AVC Video, H264, 16:9, 1280x718, 23.976 fps, 4110 kbps
Аудио: Russian (AC3, 2 ch, 192 kbps, 16 bits, 48.0 KHz) - DVO
Аудио 2: English (AC3, 2 ch, 192 kbps, 16 bits, 48.0 KHz) - оригинал
Формат субтитров: softsub (SRT)

MediaInfo
General
Unique ID : 183343685075730116617758784986636037766 (0x89EEB596019FD608B74D0DAC77DB2E86)
Complete name : K:\Jefferson In Paris 1995 WEB-DL 720p.mkv
Format : Matroska
Format version : Version 4 / Version 2
File size : 4.46 GiB
Duration : 2h 19mn
Overall bit rate : 4 585 Kbps
Encoded date : UTC 2015-08-17 05:23:11
Writing application : mkvmerge v6.1.0 ('Old Devil') built on Mar 2 2013 14:32:37
Writing library : libebml v1.3.0 + libmatroska v1.4.0
Video
ID : 1
Format : AVC
Format/Info : Advanced Video Codec
Format profile : High@L3.1
Format settings, CABAC : No
Format settings, ReFrames : 2 frames
Codec ID : V_MPEG4/ISO/AVC
Duration : 2h 19mn
Bit rate : 4 110 Kbps
Width : 1 280 pixels
Height : 718 pixels
Display aspect ratio : 16:9
Frame rate mode : Constant
Frame rate : 23.976 fps
Color space : YUV
Chroma subsampling : 4:2:0
Bit depth : 8 bits
Scan type : Progressive
Bits/(Pixel*Frame) : 0.187
Stream size : 4.00 GiB (90%)
Language : English
Default : Yes
Forced : No
Color primaries : BT.709
Transfer characteristics : BT.709
Matrix coefficients : BT.709
Audio #1
ID : 2
Format : AC-3
Format/Info : Audio Coding 3
Mode extension : CM (complete main)
Format settings, Endianness : Big
Codec ID : A_AC3
Duration : 2h 19mn
Bit rate mode : Constant
Bit rate : 192 Kbps
Channel count : 2 channels
Channel positions : Front: L R
Sampling rate : 48.0 KHz
Bit depth : 16 bits
Compression mode : Lossy
Stream size : 191 MiB (4%)
Language : Russian
Default : Yes
Forced : Yes
Audio #2
ID : 3
Format : AC-3
Format/Info : Audio Coding 3
Mode extension : CM (complete main)
Format settings, Endianness : Big
Codec ID : A_AC3
Duration : 2h 19mn
Bit rate mode : Constant
Bit rate : 192 Kbps
Channel count : 2 channels
Channel positions : Front: L R
Sampling rate : 48.0 KHz
Bit depth : 16 bits
Compression mode : Lossy
Stream size : 191 MiB (4%)
Language : English
Default : No
Forced : No
Text
ID : 4
Format : UTF-8
Codec ID : S_TEXT/UTF8
Codec ID/Info : UTF-8 Plain Text
Language : English
Default : No
Forced : No
Menu
00:00:00.000 : en:Opening Credits/Jefferson In Paris
00:07:43.000 : en:Our Own Ways
00:22:28.000 : en:Head And Heart
00:33:40.000 : en:Useless Splendors
00:41:42.000 : en:Living Vows
00:56:42.000 : en:Different Climates
01:06:34.000 : en:No In-Between
01:14:17.000 : en:Strictly Speaking
01:28:29.000 : en:The Immediate Task
01:37:24.000 : en:Jealousy Of Right
01:58:28.000 : en:Proposed Freedom
02:14:17.000 : en:End Credits
Скриншоты
Скачать

Скачать торрент!

Как скачивать? · Что такое торрент? · Рейтинг и ограничения

Сайт не распространяет и не хранит электронные версии произведений, а лишь предоставляет доступ к создаваемому пользователями каталогу ссылок на торрент-файлы, которые содержат только списки хеш-сумм

[Профиль] [ЛС]
Показать сообщения:    
Ответить на тему

Текущее время: Сегодня 00:12

Часовой пояс: GMT + 4



Вы не можете начинать темы
Вы не можете отвечать на сообщения
Вы не можете редактировать свои сообщения
Вы не можете удалять свои сообщения
Вы не можете голосовать в опросах
Вы не можете прикреплять файлы к сообщениям
Вы не можете скачивать файлы