Горничная Дженни (Яков Протазанов) [1918, Драма, немое кино, SATRip-AVC]

Ответить на тему
 
Автор Сообщение

user ®

Стаж: 7 лет 7 месяцев

Сообщений: 20008

Пост Пост: #1 от 19-Авг-2015 04:15

[Цитировать]

-Горничная Дженни- Жанр: Драма, немое кино
Год выпуска: 1918
Продолжительность: 01:00:25-Режиссёр: Яков Протазанов-В ролях: Ольга Гзовская, Владимир Гайдаров, Ольга Кондорова, Иона Таланов, Дмитрий Буховецкий, Владимир Баллюзек, В. Мак, С. Павлова-Описание: После смерти графа Шамберо его жена и дочь остались без средств к существованию. Не видя другого выхода, молодая девушка устраивается горничной в дом баронессы Анжер.-Доп. информация:

Фильм подготовлен к эфиру Студией кинопоказа ГТРК "Культура"
Производство: Т-во И. Ермольев 1917-1918 г., Россия
Сценарий: Яков Протазанов
Продюсер: Иосиф Ермольев
Оператор: Федот Бургасов
Художник: Владимир Баллюзек
Музыка: Леонид Десятников, Владимир Мартынов, Carl Maria von Weber, Wolfgang Amadeus Mozart
Музыкальный редактор: Ирина Самошина
Премьера: 26 февраля 1918 года
Возраст: 0+-Семпл: https://yadi.sk/i/QfqvmnCziS7kf-Качество видео: SATRip-AVC
Формат видео: MKV
Видео кодек: H.264
Аудио кодек: AC3
Видео: 720x544 (1.32:1), 25 fps, ~2389 kbps
Аудио: 48 kHz, AC3 Dolby Digital, 2/0 (L,R) ch, ~192 kbps
MediaInfo
General
Unique ID : 240835915500929965789038184165145929108 (0xB52F4F64FD1C76489D865909F8E56594)
Complete name : C:\Torrent\Горничная Дженни.1918.SATRip-AVC by Dmitrio7197\Горничная Дженни.1918.SATRip-AVC by Dmitrio7197.mkv
Format : Matroska
Format version : Version 2
File size : 1.09 GiB
Duration : 1h 0mn
Overall bit rate : 2 583 Kbps
Encoded date : UTC 2015-08-13 13:29:12
Writing application : mkvmerge v6.1.0 ('Old Devil') built on Mar 4 2013 09:10:42
Writing library : libebml v1.3.0 + libmatroska v1.4.0
Video
ID : 1
Format : AVC
Format/Info : Advanced Video Codec
Format profile : High@L4.1
Format settings, CABAC : Yes
Format settings, ReFrames : 8 frames
Codec ID : V_MPEG4/ISO/AVC
Duration : 1h 0mn
Bit rate : 2 389 Kbps
Width : 720 pixels
Height : 544 pixels
Display aspect ratio : 4:3
Frame rate mode : Constant
Frame rate : 25.000 fps
Color space : YUV
Chroma subsampling : 4:2:0
Bit depth : 8 bits
Scan type : Progressive
Bits/(Pixel*Frame) : 0.244
Stream size : 1 011 MiB (91%)
Writing library : x264 core 130 r2273 b3065e6
Encoding settings : cabac=1 / ref=8 / deblock=1:0:0 / analyse=0x3:0x113 / me=umh / subme=9 / psy=1 / psy_rd=1.00:0.00 / mixed_ref=1 / me_range=24 / chroma_me=1 / trellis=1 / 8x8dct=1 / cqm=0 / deadzone=21,11 / fast_pskip=1 / chroma_qp_offset=-2 / threads=6 / lookahead_threads=1 / sliced_threads=0 / nr=0 / decimate=0 / interlaced=0 / bluray_compat=0 / constrained_intra=0 / bframes=8 / b_pyramid=2 / b_adapt=1 / b_bias=0 / direct=3 / weightb=1 / open_gop=0 / weightp=2 / keyint=250 / keyint_min=25 / scenecut=40 / intra_refresh=0 / rc_lookahead=40 / rc=2pass / mbtree=1 / bitrate=2389 / ratetol=1.0 / qcomp=0.60 / qpmin=0 / qpmax=69 / qpstep=4 / cplxblur=20.0 / qblur=0.5 / ip_ratio=1.40 / aq=1:1.00
Default : Yes
Forced : No
Audio
ID : 2
Format : AC-3
Format/Info : Audio Coding 3
Mode extension : CM (complete main)
Format settings, Endianness : Big
Codec ID : A_AC3
Duration : 1h 0mn
Bit rate mode : Constant
Bit rate : 192 Kbps
Channel(s) : 2 channels
Channel positions : Front: L R
Sampling rate : 48.0 KHz
Bit depth : 16 bits
Compression mode : Lossy
Stream size : 83.0 MiB (7%)
Default : Yes
Forced : No
Скриншоты -
Пример интертитров Сравнение с avi
[url=http://***/forum/viewtopic.php?t=4527667]http://***/forum/viewtopic.php?t=4527667[/url]
http://screenshotcomparison.com/comparison/138464/picture:4
Скачать

Скачать торрент!

Как скачивать? · Что такое торрент? · Рейтинг и ограничения

Сайт не распространяет и не хранит электронные версии произведений, а лишь предоставляет доступ к создаваемому пользователями каталогу ссылок на торрент-файлы, которые содержат только списки хеш-сумм

[Профиль] [ЛС]
Показать сообщения:    
Ответить на тему

Текущее время: Сегодня 05:58

Часовой пояс: GMT + 4



Вы не можете начинать темы
Вы не можете отвечать на сообщения
Вы не можете редактировать свои сообщения
Вы не можете удалять свои сообщения
Вы не можете голосовать в опросах
Вы не можете прикреплять файлы к сообщениям
Вы не можете скачивать файлы