Богатырь духа / Паразиты жизни (Яков Протазанов) [1918, Драма, немое кино, SATRip-AVC]

Ответить на тему
 
Автор Сообщение

user ®

Стаж: 7 лет 7 месяцев

Сообщений: 20008

Пост Пост: #1 от 19-Авг-2015 04:15

[Цитировать]

-Богатырь духа / Паразиты жизни- Жанр: Драма, немое кино
Год выпуска: 1918
Продолжительность: 00:48:50-Режиссёр: Яков Протазанов-В ролях: Иван Мозжухин, Ольга Трофимова, Дмитрий Буховецкий, Наталья Лисенко, П. Павлов, А. Бирюков-Описание: По роману Эльзы Вернер "Винета".
Картина, как и большинство тогдашних лент, носит назидательный характер, представив в образе двух братьев извечную историю о противоборстве добра и зла.-Доп. информация:

Производство: Т-во И. Ермольев, Москва, 1918 г.
Сценарий: О. Блажевич
Продюсер: Иосиф Ермольев
Оператор: Николай Рудаков
Премьера: 25 марта 1918 года
Возраст: 0+-Семпл: https://yadi.sk/i/7F4tpj05iTrdh-Качество видео: SATRip-AVC
Формат видео: MKV
Видео кодек: H.264
Аудио кодек: AC3
Видео: 720x544 (1.32:1), 25 fps, ~1955 kbps
Аудио: 48 kHz, AC3 Dolby Digital, 2/0 (L,R) ch, ~192 kbps
MediaInfo
General
Unique ID : 251472724877906814997508995440660840062 (0xBD2FE2962B55F5F9B3FCA0BC6C15FE7E)
Complete name : C:\Torrent\Богатырь духа(Паразиты жизни).1918.SATRip-AVC by Dmitrio7197\Богатырь духа(Паразиты жизни).1918.SATRip-AVC by Dmitrio7197.mkv
Format : Matroska
Format version : Version 2
File size : 751 MiB
Duration : 48mn 50s
Overall bit rate : 2 149 Kbps
Encoded date : UTC 2015-08-14 23:58:40
Writing application : mkvmerge v6.1.0 ('Old Devil') built on Mar 4 2013 09:10:42
Writing library : libebml v1.3.0 + libmatroska v1.4.0
Video
ID : 1
Format : AVC
Format/Info : Advanced Video Codec
Format profile : High@L4.1
Format settings, CABAC : Yes
Format settings, ReFrames : 8 frames
Codec ID : V_MPEG4/ISO/AVC
Duration : 48mn 50s
Bit rate : 1 955 Kbps
Width : 720 pixels
Height : 544 pixels
Display aspect ratio : 4:3
Frame rate mode : Constant
Frame rate : 25.000 fps
Color space : YUV
Chroma subsampling : 4:2:0
Bit depth : 8 bits
Scan type : Progressive
Bits/(Pixel*Frame) : 0.200
Stream size : 669 MiB (89%)
Writing library : x264 core 130 r2273 b3065e6
Encoding settings : cabac=1 / ref=8 / deblock=1:0:0 / analyse=0x3:0x113 / me=umh / subme=9 / psy=1 / psy_rd=1.00:0.00 / mixed_ref=1 / me_range=24 / chroma_me=1 / trellis=1 / 8x8dct=1 / cqm=0 / deadzone=21,11 / fast_pskip=1 / chroma_qp_offset=-2 / threads=6 / lookahead_threads=1 / sliced_threads=0 / nr=0 / decimate=0 / interlaced=0 / bluray_compat=0 / constrained_intra=0 / bframes=8 / b_pyramid=2 / b_adapt=1 / b_bias=0 / direct=3 / weightb=1 / open_gop=0 / weightp=2 / keyint=250 / keyint_min=25 / scenecut=40 / intra_refresh=0 / rc_lookahead=40 / rc=2pass / mbtree=1 / bitrate=1955 / ratetol=1.0 / qcomp=0.60 / qpmin=0 / qpmax=69 / qpstep=4 / cplxblur=20.0 / qblur=0.5 / ip_ratio=1.40 / aq=1:1.00
Default : Yes
Forced : No
Audio
ID : 2
Format : AC-3
Format/Info : Audio Coding 3
Mode extension : CM (complete main)
Format settings, Endianness : Big
Codec ID : A_AC3
Duration : 48mn 50s
Bit rate mode : Constant
Bit rate : 192 Kbps
Channel(s) : 2 channels
Channel positions : Front: L R
Sampling rate : 48.0 KHz
Bit depth : 16 bits
Compression mode : Lossy
Stream size : 67.1 MiB (9%)
Default : Yes
Forced : No
Скриншоты -
Пример интертитров
У "Культуры" видимо какая-то болезнь со срезанной левой стороной...
Сравнение с avi
[url=http://***/forum/viewtopic.php?t=3974558]http://***/forum/viewtopic.php?t=3974558[/url]
http://screenshotcomparison.com/comparison/138692/picture:2
Скачать

Скачать торрент!

Как скачивать? · Что такое торрент? · Рейтинг и ограничения

Сайт не распространяет и не хранит электронные версии произведений, а лишь предоставляет доступ к создаваемому пользователями каталогу ссылок на торрент-файлы, которые содержат только списки хеш-сумм

[Профиль] [ЛС]
Показать сообщения:    
Ответить на тему

Текущее время: Сегодня 10:04

Часовой пояс: GMT + 4



Вы не можете начинать темы
Вы не можете отвечать на сообщения
Вы не можете редактировать свои сообщения
Вы не можете удалять свои сообщения
Вы не можете голосовать в опросах
Вы не можете прикреплять файлы к сообщениям
Вы не можете скачивать файлы