Алоха / Aloha (Камерон Кроу / Cameron Crowe) [2015, США, Мелодрама, HDRip] VO (А.Глинский) + Original Eng

Ответить на тему
 
Автор Сообщение

user ®

Стаж: 7 лет 7 месяцев

Сообщений: 20008

Пост Пост: #1 от 19-Авг-2015 04:15

[Цитировать]

Алоха / Aloha
Страна: США
Жанр: Мелодрама
Год выпуска: 2015
Продолжительность: 01:44:38
Перевод: Одноголосый закадровый А.Глинский
Cубтитры: нет
Оригинальная аудиодорожка: английский
Режиссер: Камерон Кроу / Cameron Crowe
В ролях: Брэдли Купер, Эмма Стоун, Рэйчел МакАдамс, Билл Мюррей, Джон Красински, Алек Болдуин
Описание: Оставшийся не у дел военный контрактник получает шанс восстановить свою карьеру. Он возвращается на Гавайи, где когда-то работал, для урегулирования вопросов с местным населением. Там он встречает свою бывшую...и будущую.
Его миссия оказывается гораздо выше простого слияния двух военных баз США, а отношения гораздо запутаннее...
Очередная мелодрама от мастера жанра Камерона Кроу ("Джерри Магуайер", "Ванильное небо", "Мы купили зоопарк"). Несмотря на кислые отзывы в Сети, фильм не хуже его лучших вещей. А в некоторых местах и лучше.
Сэмпл: http://sendfile.su/1146000
Качество видео: HDRip
Формат видео: AVI
Видео: Xvid, MPEG-4, 720x388, 1.85:1, 23.976 fps, 1 594 Kbps
Аудио: MP3, 44.1kHz, 160 kbps, 2 channels, перевод
Аудио 2: MP3, 48 kHz, 192 kbps, 2 channels, english
MediaInfo
General
Complete name : C:\Users\Aloha G\Aloha.avi
Format : AVI
Format/Info : Audio Video Interleave
File size : 1.43 GiB
Duration : 1h 44mn
Overall bit rate : 1 963 Kbps
Movie name : Aloha.2015.BRRip.XviD.MP3
Writing application : VirtualDubMod 1.5.10.2 (build 2540/release)
Writing library : VirtualDubMod build 2540/release
Comment : Aloha.2015.BRRip.XviD.MP3
Video
ID : 0
Format : MPEG-4 Visual
Format profile : Simple@L5
Format settings, BVOP : No
Format settings, QPel : No
Format settings, GMC : No warppoints
Format settings, Matrix : Default (H.263)
Codec ID : XVID
Codec ID/Hint : XviD
Duration : 1h 44mn
Bit rate : 1 594 Kbps
Width : 720 pixels
Height : 388 pixels
Display aspect ratio : 1.85:1
Original display aspect ratio : 1.85:1
Frame rate : 23.976 fps
Color space : YUV
Chroma subsampling : 4:2:0
Bit depth : 8 bits
Scan type : Progressive
Compression mode : Lossy
Bits/(Pixel*Frame) : 0.238
Stream size : 1.16 GiB (81%)
Writing library : Lavc56.19.100
Audio #1
ID : 1
Format : MPEG Audio
Format version : Version 1
Format profile : Layer 3
Mode : Joint stereo
Mode extension : MS Stereo
Codec ID : 55
Codec ID/Hint : MP3
Duration : 1h 44mn
Bit rate mode : Constant
Bit rate : 160 Kbps
Channel(s) : 2 channels
Sampling rate : 44.1 KHz
Compression mode : Lossy
Stream size : 120 MiB (8%)
Alignment : Split accross interleaves
Interleave, duration : 42 ms (1.00 video frame)
Interleave, preload duration : 500 ms
Writing library : LAME3.98.4ЄЄЄЄЄЄЄЄЄЄ
Audio #2
ID : 2
Format : MPEG Audio
Format version : Version 1
Format profile : Layer 3
Mode : Joint stereo
Mode extension : MS Stereo
Codec ID : 55
Codec ID/Hint : MP3
Duration : 1h 44mn
Bit rate mode : Constant
Bit rate : 192 Kbps
Channel(s) : 2 channels
Sampling rate : 48.0 KHz
Compression mode : Lossy
Stream size : 144 MiB (10%)
Alignment : Aligned on interleaves
Interleave, duration : 24 ms (0.58 video frame)
Interleave, preload duration : 504 ms
Скриншот c названием фильма Скриншоты
Скачать

Скачать торрент!

Как скачивать? · Что такое торрент? · Рейтинг и ограничения

Сайт не распространяет и не хранит электронные версии произведений, а лишь предоставляет доступ к создаваемому пользователями каталогу ссылок на торрент-файлы, которые содержат только списки хеш-сумм

[Профиль] [ЛС]
Показать сообщения:    
Ответить на тему

Текущее время: Сегодня 03:11

Часовой пояс: GMT + 4



Вы не можете начинать темы
Вы не можете отвечать на сообщения
Вы не можете редактировать свои сообщения
Вы не можете удалять свои сообщения
Вы не можете голосовать в опросах
Вы не можете прикреплять файлы к сообщениям
Вы не можете скачивать файлы