Титаны: Вторжение. Фильм первый: Жестокий мир / Attack on Titan / Shingeki no kyojin (Синдзи Хигути / Higuchi Shinji) [2015, Япония, ужасы, фэнтези, боевик, драма, приключения, WEB-DL-AVC] DVO (DeadSno & Den904)

Ответить на тему
 
Автор Сообщение

user ®

Стаж: 7 лет 7 месяцев

Сообщений: 20008

Пост Пост: #1 от 18-Авг-2015 15:51

[Цитировать]

Титаны: Вторжение. Фильм первый: Жестокий мир / Attack on Titan / Shingeki no kyojin
Страна: Япония
Жанр: ужасы, фэнтези, боевик, драма, приключения
Год выпуска: 2015
Продолжительность: 01:38:12
Перевод: Любительский (двухголосый закадровый) DeadSno & Den904 по переводу akira9
Cубтитры: Английские (не отключаемые)
Оригинальная аудиодорожка: нет
Режиссер: Синдзи Хигути / Higuchi Shinji
В ролях: Харума Миура, Кико Мидзухара, Каната Хонго, Сатоми Исихара, Нанами Сакураба, Такахиро Миура, Хироки Хасегава, Аямэ Мисаки, Пьер Таки, Дзюн Кунимура
Описание: Вместо прогресса человечество оказалось отброшено назад появлением расы гигантов. Огромные гуманоиды не обладали ни речью, ни разумом, но при этом пожирали людей, как чипсы, а обычное оружие уровня XIX века оказалось бессильно. Остатки рода людского смогли выжить лишь за циклопическими стенами, которые тройным кольцом опоясали последние поля, города и деревни. Затишье продолжалось сто лет, за это время люди успокоились, армия была сокращена, а городская стража превратилась в дармоедов. Боеспособность сохранил лишь Разведкорпус — но кому нужны самоубийцы, что постоянно рискуют жизнью за стенами, когда можно спокойно сидеть за каменным забором?
Сэмпл: http://multi-up.com/1062794
Качество видео: WEB-DL-AVC
Формат видео: MKV
Видео: AVC, 2000 kbps, 960x400, 24 fps
Аудио: AC-3, 192 kbps, 48 kHZ, 2 ch
MediaInfo
Format: Matroska
Format version: Version 4 / Version 2
File size: 1.50 GiB
Duration: 1h 38mn
Overall bit rate: 2 194 Kbps
Encoded date: UTC 2015-08-16 13:15:02
Writing application: mkvmerge v6.2.0 ('Promised Land') built on Apr 28 2013 12:22:01
Writing library: libebml v1.3.0 + libmatroska v1.4.0
Format: AVC
Format/Info: Advanced Video Codec
Format profile: High@L4.1
Format settings, CABAC: Yes
Format settings, ReFrames: 4 frames
Codec ID: V_MPEG4/ISO/AVC
Duration: 1h 38mn
Bit rate: 2 000 Kbps
Width: 960 pixels
Height: 400 pixels
Display aspect ratio: 2.40:1
Frame rate mode: Constant
Frame rate: 24.000 fps
Color space: YUV
Chroma subsampling: 4:2:0
Bit depth: 8 bits
Scan type: Progressive
Bits/(Pixel*Frame): 0.217
Stream size: 1.34 GiB (89%)
Writing library: x264 core 146 r2538 121396c
Encoding settings: cabac=1 / ref=4 / deblock=1:0:0 / analyse=0x3:0x133 / me=hex / subme=7 / psy=1 / psy_rd=1.00:0.00 / mixed_ref=1 / me_range=16 / chroma_me=1 / trellis=1 / 8x8dct=1 / cqm=0 / deadzone=21,11 / fast_pskip=1 / chroma_qp_offset=-2 / threads=6 / lookahead_threads=1 / sliced_threads=0 / nr=0 / decimate=1 / interlaced=0 / bluray_compat=0 / constrained_intra=0 / bframes=3 / b_pyramid=2 / b_adapt=1 / b_bias=0 / direct=1 / weightb=1 / open_gop=0 / weightp=2 / keyint=250 / keyint_min=25 / scenecut=40 / intra_refresh=0 / rc_lookahead=40 / rc=2pass / mbtree=1 / bitrate=2000 / ratetol=1.0 / qcomp=0.60 / qpmin=10 / qpmax=51 / qpstep=4 / cplxblur=20.0 / qblur=0.5 / ip_ratio=1.40 / aq=1:1.00
Default: Yes
Forced: No
Format: AC-3
Format/Info: Audio Coding 3
Mode extension: CM (complete main)
Format settings, Endianness: Big
Codec ID: A_AC3
Duration: 1h 38mn
Bit rate mode: Constant
Bit rate: 192 Kbps
Channel(s): 2 channels
Channel positions: Front: L R
Sampling rate: 48.0 KHz
Bit depth: 16 bits
Compression mode: Lossy
Stream size: 135 MiB (9%)
Default: Yes
Forced: No
Скриншот c названием фильма Скриншоты
Скачать

Скачать торрент!

Как скачивать? · Что такое торрент? · Рейтинг и ограничения

Сайт не распространяет и не хранит электронные версии произведений, а лишь предоставляет доступ к создаваемому пользователями каталогу ссылок на торрент-файлы, которые содержат только списки хеш-сумм

[Профиль] [ЛС]
Показать сообщения:    
Ответить на тему

Текущее время: Сегодня 05:58

Часовой пояс: GMT + 4



Вы не можете начинать темы
Вы не можете отвечать на сообщения
Вы не можете редактировать свои сообщения
Вы не можете удалять свои сообщения
Вы не можете голосовать в опросах
Вы не можете прикреплять файлы к сообщениям
Вы не можете скачивать файлы