Потеря надежды / Hope Lost (Дэвид Петруччи / David Petrucci) [2015, Италия, триллер, драма, HDRip] MVO

Ответить на тему
 
Автор Сообщение

user ®

Стаж: 7 лет 7 месяцев

Сообщений: 20008

Пост Пост: #1 от 18-Авг-2015 03:30

[Цитировать]

Потеря надежды / Hope Lost
Страна: Италия
Жанр: триллер, драма
Год выпуска: 2015
Продолжительность: 01:34:25
Перевод: Любительский (многоголосый закадровый)
Cубтитры: нет
Режиссер: Дэвид Петруччи / David Petrucci
В ролях: Дэнни Трехо, Миша Бартон, Майкл Мэдсен, Дэниэл Болдуин, Андрей Чернышов, Диего Паготто, Франческа Агостини, Алессия Наварро, Дино Джарруссо, Франческо Аквароли
Описание: Юная София мечтает о карьере модели и, казалось бы, ее желания воплощаются, когда в баре она встречает кинопродюсера, к которому она ходила на прослушивание. Тот предлагает ей поехать в Италию для съемок фильма - и девушка соглашается, не знаю, что попадет прямиком в Ад.
Сэмпл
Качество видео: HDRip
Формат видео: AVI
Видео: 1797 Кбит/сек 720 x 304 (2.368) 23.976
Аудио: AC-3 384 Кбит/сек 6 каналов, 48,0 КГц
Доп. инфо: Присутствует ненормативная лексика
MediaInfo
Общее
Полное имя : F:\Потеря надежды - 2015.avi
Формат : AVI
Формат/Информация : Audio Video Interleave
Размер файла : 1,44 Гбайт
Продолжительность : 1 ч. 34 м.
Общий поток : 2190 Кбит/сек
Программа кодирования : VirtualDubMod 1.5.10.3 | www.virtualdub-fr.org || (build 2550/release)
Библиотека кодирования : VirtualDubMod build 2550/release
Видео
Идентификатор : 0
Формат : MPEG-4 Visual
Профиль формата : Advanced Simple@L5
Параметр BVOP формата : 1
Параметр QPel формата : Нет
Параметр GMC формата : Без точки перехода
Параметр матрицы формата : Выборочная
Идентификатор кодека : XVID
Идентификатор кодека/Подсказка : XviD
Продолжительность : 1 ч. 34 м.
Битрейт : 1797 Кбит/сек
Ширина : 720 пикселей
Высота : 304 пикселя
Соотношение сторон : 2,35:1
Частота кадров : 23,976 кадра/сек
Цветовое пространство : YUV
Субдискретизация насыщенности : 4:2:0
Битовая глубина : 8 бит
Тип развёртки : Прогрессивная
Метод сжатия : С потерями
Бит/(Пиксели*Кадры) : 0.342
Размер потока : 1,19 Гбайт (82%)
Библиотека кодирования : XviD 73
Аудио
Идентификатор : 1
Формат : AC-3
Формат/Информация : Audio Coding 3
Расширение режима : CM (complete main)
Параметр Endianness формата : Big
Идентификатор кодека : 2000
Продолжительность : 1 ч. 34 м.
Вид битрейта : Постоянный
Битрейт : 384 Кбит/сек
Каналы : 6 каналов
Расположение каналов : Front: L C R, Side: L R, LFE
Частота : 48,0 КГц
Битовая глубина : 16 бит
Метод сжатия : С потерями
Размер потока : 259 Мбайт (18%)
Выравнивание : Разделение по промежуткам
Продолжительность промежутка : 42 мс. (1,00 видеокадр)
Время предзагрузки промежутка : 500 мс.
Скриншот c названием фильма Скриншоты
Скачать

Скачать торрент!

Как скачивать? · Что такое торрент? · Рейтинг и ограничения

Сайт не распространяет и не хранит электронные версии произведений, а лишь предоставляет доступ к создаваемому пользователями каталогу ссылок на торрент-файлы, которые содержат только списки хеш-сумм

[Профиль] [ЛС]
Показать сообщения:    
Ответить на тему

Текущее время: Сегодня 12:00

Часовой пояс: GMT + 4



Вы не можете начинать темы
Вы не можете отвечать на сообщения
Вы не можете редактировать свои сообщения
Вы не можете удалять свои сообщения
Вы не можете голосовать в опросах
Вы не можете прикреплять файлы к сообщениям
Вы не можете скачивать файлы