Первый ребенок страны / Сорванец / First Kid (Дэвид М. Эванс / David M. Evans) [1996, США, комедия, семейный, WEB-DL 720p] DVO + 2х AVO (Алексеев, Кашкин) + Sub Rus, Eng + Original Eng

Ответить на тему
 
Автор Сообщение

user ®

Стаж: 7 лет 7 месяцев

Сообщений: 20008

Пост Пост: #1 от 18-Авг-2015 00:24

[Цитировать]

Первый ребенок страны / Сорванец / First Kid
Страна: США
Студия: Caravan Pictures, Walt Disney Pictures
Жанр: комедия, семейный
Год выпуска: 1996
Продолжительность: 01:40:49
Перевод: Профессиональный (двухголосый закадровый)
Перевод 2: Авторский (одноголосый закадровый) А. Алексеев
Перевод 3: Авторский (одноголосый закадровый) А. Кашкин
Cубтитры: русские, английские
Оригинальная аудиодорожка: английский
Режиссер: Дэвид Микки Эванс / David M. Evans
В ролях: Синбад, Брок Пирс, Блейк Бойд, Тимоти Басфилд, Арт ЛаФлёр, Роберт Гийом, Лиза Айкхорн, Джеймс Нафтон, Фаун Рид, Эрин Уиллиби
Описание: Чернокожий телохранитель Сэм Симмс получает сверхважное задание. Он назначен ответственным за жизнь первого ребенка страны — сына президента.
Большой, нелепый, но добродушнейший охранник, обожающий «неуставные» цветастые галстуки, и с виду заносчивый, но несчастный из-за своего одиночества мальчишка мало-помалу становятся друзьями. Сэм учит сына президента боксировать и помогает ему завести друзей среди ровесников…

Доп. информация: За русские дороги спасибо sass200 (за двухголоску), Антоше (за А. Алексеева), -GoldStar- (За А. Кашкина). За русские сабы спасибо Ibraghim.

Sample
Тип релиза: WEB-DL 720p
Контейнер: MKV
Видео: MPEG4 AVC Video, H264, 16:9, 1280x718, 23.976 fps, 3857 kbps
Аудио: Russian (AC3, 2 ch, 192 kbps, 16 bits, 48.0 KHz) - DVO
Аудио 2: Russian (AC3, 6 ch, 384kbps, 16 bits, 48.0 KHz) - А. Алексеев
Аудио 3: Russian (AC3, 2 ch, 192 kbps, 16 bits, 48.0 KHz) - А. Кашкин
Аудио 4: English (AC3, 6 ch, 384 kbps, 16 bits, 48.0 KHz) - оригинал
Формат субтитров: softsub (SRT)

MediaInfo
General
Unique ID : 183441163313515740075385199649303265618 (0x8A017BA25739F011B4B368F7241F8152)
Complete name : K:\First Kid 1996 WEB-DL 720p.mkv
Format : Matroska
Format version : Version 4 / Version 2
File size : 3.60 GiB
Duration : 1h 40mn
Overall bit rate : 5 111 Kbps
Encoded date : UTC 2015-08-15 22:38:43
Writing application : mkvmerge v6.1.0 ('Old Devil') built on Mar 2 2013 14:32:37
Writing library : libebml v1.3.0 + libmatroska v1.4.0
Video
ID : 1
Format : AVC
Format/Info : Advanced Video Codec
Format profile : High@L3.1
Format settings, CABAC : No
Format settings, ReFrames : 2 frames
Format settings, GOP : N=1
Codec ID : V_MPEG4/ISO/AVC
Duration : 1h 40mn
Bit rate : 3 857 Kbps
Width : 1 280 pixels
Height : 718 pixels
Display aspect ratio : 16:9
Frame rate mode : Constant
Frame rate : 23.976 fps
Color space : YUV
Chroma subsampling : 4:2:0
Bit depth : 8 bits
Scan type : Progressive
Bits/(Pixel*Frame) : 0.175
Stream size : 2.72 GiB (75%)
Language : English
Default : Yes
Forced : No
Color primaries : BT.709
Transfer characteristics : BT.709
Matrix coefficients : BT.709
Audio #1
ID : 2
Format : AC-3
Format/Info : Audio Coding 3
Mode extension : CM (complete main)
Format settings, Endianness : Big
Codec ID : A_AC3
Duration : 1h 40mn
Bit rate mode : Constant
Bit rate : 192 Kbps
Channel count : 2 channels
Channel positions : Front: L R
Sampling rate : 48.0 KHz
Bit depth : 16 bits
Compression mode : Lossy
Stream size : 138 MiB (4%)
Title : MVO
Language : Russian
Default : Yes
Forced : Yes
Audio #2
ID : 3
Format : AC-3
Format/Info : Audio Coding 3
Mode extension : CM (complete main)
Format settings, Endianness : Big
Codec ID : A_AC3
Duration : 1h 40mn
Bit rate mode : Constant
Bit rate : 384 Kbps
Channel count : 6 channels
Channel positions : Front: L C R, Side: L R, LFE
Sampling rate : 48.0 KHz
Bit depth : 16 bits
Compression mode : Lossy
Stream size : 277 MiB (8%)
Title : А. Алексеев
Language : Russian
Default : No
Forced : No
Audio #3
ID : 4
Format : AC-3
Format/Info : Audio Coding 3
Mode extension : CM (complete main)
Format settings, Endianness : Big
Codec ID : A_AC3
Duration : 1h 40mn
Bit rate mode : Constant
Bit rate : 192 Kbps
Channel count : 2 channels
Channel positions : Front: L R
Sampling rate : 48.0 KHz
Bit depth : 16 bits
Compression mode : Lossy
Stream size : 138 MiB (4%)
Title : А. Кашкин
Language : Russian
Default : No
Forced : No
Audio #4
ID : 5
Format : AC-3
Format/Info : Audio Coding 3
Mode extension : CM (complete main)
Format settings, Endianness : Big
Codec ID : A_AC3
Duration : 1h 40mn
Bit rate mode : Constant
Bit rate : 384 Kbps
Channel count : 6 channels
Channel positions : Front: L C R, Side: L R, LFE
Sampling rate : 48.0 KHz
Bit depth : 16 bits
Compression mode : Lossy
Stream size : 277 MiB (8%)
Language : English
Default : No
Forced : No
Text #1
ID : 6
Format : UTF-8
Codec ID : S_TEXT/UTF8
Codec ID/Info : UTF-8 Plain Text
Language : Russian
Default : No
Forced : No
Text #2
ID : 7
Format : UTF-8
Codec ID : S_TEXT/UTF8
Codec ID/Info : UTF-8 Plain Text
Language : English
Default : No
Forced : No
Menu
00:00:00.000 : en:chapter 1
00:15:38.000 : en:chapter 2
00:22:22.000 : en:chapter 3
00:27:22.000 : en:chapter 4
00:37:11.000 : en:chapter 5
00:46:09.000 : en:chapter 6
00:58:03.000 : en:chapter 7
01:06:10.000 : en:chapter 8
01:14:09.000 : en:chapter 9
01:22:59.000 : en:chapter 10
01:28:50.000 : en:chapter 11
01:36:38.000 : en:chapter 12
Скриншоты
Скачать

Скачать торрент!

Как скачивать? · Что такое торрент? · Рейтинг и ограничения

Сайт не распространяет и не хранит электронные версии произведений, а лишь предоставляет доступ к создаваемому пользователями каталогу ссылок на торрент-файлы, которые содержат только списки хеш-сумм

[Профиль] [ЛС]
Показать сообщения:    
Ответить на тему

Текущее время: Сегодня 06:08

Часовой пояс: GMT + 4



Вы не можете начинать темы
Вы не можете отвечать на сообщения
Вы не можете редактировать свои сообщения
Вы не можете удалять свои сообщения
Вы не можете голосовать в опросах
Вы не можете прикреплять файлы к сообщениям
Вы не можете скачивать файлы