Безликий / The Point Men (Джон Глен /John Glen) [2001, Великобритания, Франция, Люксембург, боевик, драма, WEB-DL 720p] DVO + Sub Rus, Eng + Original Eng

Ответить на тему
 
Автор Сообщение

user ®

Стаж: 7 лет 7 месяцев

Сообщений: 20008

Пост Пост: #1 от 18-Авг-2015 00:24

[Цитировать]

Безликий / The Point Men
Страна: Великобритания, Франция, Люксембург
Студия: Conquistador Entertainment, The Carousel Picture Company S.A.
Жанр: боевик, драма
Год выпуска: 2001
Продолжительность: 01:30:28
Перевод: Профессиональный (двухголосый закадровый)
Cубтитры: русские, английские
Оригинальная аудиодорожка: английский
Режиссер: Джон Глен /John Glen
В ролях: Кристофер Ламберт, Керри Фокс, Винсент Риган, Кэл Макэнинк, Николас Де Пруссенаре, Дональд Самптер, Мэриам д’Або, Оливер Хейден, Хендрик Хасе, Уильям Армстронг
Описание: После неудачного покушения на знаменитого палестинского террориста Амара Камила спецназовцы из группы, участвовавшей в операции, один за другим становятся жертвами неизвестного убийцы. Подозрение падает на Камила, который уже расправился с семьей Тони Экхарда, поклявшегося отомстить за погибших товарищей. Но его миссия осложняется тем, что бывшие сотрудники КГБ снабдили верного им террориста новой внешностью. Обходя хитроумные ловушки, выживая в безумных погонях и перестрелках, Тони неотступно приближается к своей мишени, но сможет ли он узнать Камила в тот роковой момент, когда нужно будет спустить курок?

Sample
Тип релиза: WEB-DL 720p
Контейнер: MKV
Видео: MPEG4 AVC Video, H264, 16:9, 1280x720, 23.976 fps, 3816 kbps
Аудио: Russian (AC3, 6 ch, 448 kbps, 16 bits, 48.0 KHz) - DVO
Аудио 2: English (AC3, 6 ch, 448kbps, 16 bits, 48.0 KHz) - оригинал
Формат субтитров: softsub (SRT)

MediaInfo
General
Unique ID : 214405521767098884634760072192212511525 (0xA14D005FC4EC5D31AB6BB33404A2AB25)
Complete name : K:\The Point Men 2001 WEB-DL 720p.mkv
Format : Matroska
Format version : Version 4 / Version 2
File size : 3.04 GiB
Duration : 1h 30mn
Overall bit rate : 4 807 Kbps
Encoded date : UTC 2015-08-14 22:22:19
Writing application : mkvmerge v6.1.0 ('Old Devil') built on Mar 2 2013 14:32:37
Writing library : libebml v1.3.0 + libmatroska v1.4.0
Video
ID : 1
Format : AVC
Format/Info : Advanced Video Codec
Format profile : High@L3.1
Format settings, CABAC : No
Format settings, ReFrames : 2 frames
Codec ID : V_MPEG4/ISO/AVC
Duration : 1h 30mn
Bit rate : 3 816 Kbps
Width : 1 280 pixels
Height : 720 pixels
Display aspect ratio : 16:9
Frame rate mode : Constant
Frame rate : 23.976 fps
Color space : YUV
Chroma subsampling : 4:2:0
Bit depth : 8 bits
Scan type : Progressive
Bits/(Pixel*Frame) : 0.173
Stream size : 2.41 GiB (79%)
Language : English
Default : Yes
Forced : No
Color primaries : BT.709
Transfer characteristics : BT.709
Matrix coefficients : BT.709
Audio #1
ID : 2
Format : AC-3
Format/Info : Audio Coding 3
Mode extension : CM (complete main)
Format settings, Endianness : Big
Codec ID : A_AC3
Duration : 1h 30mn
Bit rate mode : Constant
Bit rate : 448 Kbps
Channel count : 6 channels
Channel positions : Front: L C R, Side: L R, LFE
Sampling rate : 48.0 KHz
Bit depth : 16 bits
Compression mode : Lossy
Stream size : 290 MiB (9%)
Language : Russian
Default : Yes
Forced : Yes
Audio #2
ID : 3
Format : AC-3
Format/Info : Audio Coding 3
Mode extension : CM (complete main)
Format settings, Endianness : Big
Codec ID : A_AC3
Duration : 1h 30mn
Bit rate mode : Constant
Bit rate : 448 Kbps
Channel count : 6 channels
Channel positions : Front: L C R, Side: L R, LFE
Sampling rate : 48.0 KHz
Bit depth : 16 bits
Compression mode : Lossy
Stream size : 290 MiB (9%)
Language : English
Default : No
Forced : No
Text #1
ID : 4
Format : UTF-8
Codec ID : S_TEXT/UTF8
Codec ID/Info : UTF-8 Plain Text
Language : Russian
Default : No
Forced : No
Text #2
ID : 5
Format : UTF-8
Codec ID : S_TEXT/UTF8
Codec ID/Info : UTF-8 Plain Text
Language : English
Default : No
Forced : No
Menu
00:00:00.000 : en:Start
00:04:18.000 : en:The Wrong Guy
00:07:23.000 : en:Hospital Debriefing
00:10:39.000 : en:The Real Kamil
00:16:58.000 : en:Welcoming Committee
00:18:52.000 : en:Kremer Clinic
00:20:30.000 : en:Special Operations
00:23:11.000 : en:Convenince Execution
00:29:22.000 : en:Talking Shop
00:32:39.000 : en:Going On Vacation
00:36:44.000 : en:Clean Your Desk.
00:38:50.000 : en:Nazi Filth Club
00:40:30.000 : en:David Goodis Buff
00:44:40.000 : en:Set Up
00:48:42.000 : en:Toasting The Queen
00:50:51.000 : en:Not A Drill
00:52:06.000 : en:Targets
00:55:56.000 : en:The Three Kings
00:59:07.000 : en:Room 312
01:01:25.000 : en:Maddy's Suitor
01:04:09.000 : en:George Masoud
01:06:34.000 : en:Fifth Victim
01:09:05.000 : en:Five Minutes
01:11:49.000 : en:Stupid, Not Crazy
01:15:04.000 : en:Assassination Attempt
01:18:05.000 : en:Motorcycle Chase
01:19:59.000 : en:Let It End.
01:24:13.000 : en:One Year Later
Скриншоты
Скачать

Скачать торрент!

Как скачивать? · Что такое торрент? · Рейтинг и ограничения

Сайт не распространяет и не хранит электронные версии произведений, а лишь предоставляет доступ к создаваемому пользователями каталогу ссылок на торрент-файлы, которые содержат только списки хеш-сумм

[Профиль] [ЛС]
Показать сообщения:    
Ответить на тему

Текущее время: Сегодня 22:17

Часовой пояс: GMT + 4



Вы не можете начинать темы
Вы не можете отвечать на сообщения
Вы не можете редактировать свои сообщения
Вы не можете удалять свои сообщения
Вы не можете голосовать в опросах
Вы не можете прикреплять файлы к сообщениям
Вы не можете скачивать файлы