Площадка 2 / Пустырь 2 / The Sandlot 2 (Дэвид М. Эванс / David M. Evans) [2005, США, комедия, семейный, спорт, WEB-DL 720p] MVO + Sub Eng + Original Eng

Ответить на тему
 
Автор Сообщение

user ®

Стаж: 7 лет 7 месяцев

Сообщений: 20008

Пост Пост: #1 от 18-Авг-2015 00:24

[Цитировать]

Площадка 2 / Пустырь 2 / The Sandlot 2
Страна: США
Студия: 20th Century Fox Home Entertainment
Жанр: комедия, семейный, спорт
Год выпуска: 2005
Продолжительность: 01:37:43
Перевод: Профессиональный (многоголосый закадровый)
Cубтитры: английские
Оригинальная аудиодорожка: английский
Режиссер: Дэвид М. Эванс / David M. Evans
В ролях: Макс Ллойд-Джонс, Джеймс Вилсон, Саманта Бертон, Бретт Келли, Коул Ивэн Уайсс, Нилен Бенвеню, Шон Берди, Джесика Кинг, МакКензи Фримантл, Гриффин Рейли Эван
Описание: 1972 год. На спортивной площадке появляется новая компания детей, обожающих играть в бейсбол: Сол, его пятеро лучших друзей и три девочки. Кроме бейсбола, ребят объединяет еще одна общая цель. Они должны достать модель ракеты, которая упала во двор к загадочному мистеру Мертлу…

Sample
Тип релиза: WEB-DL 720p
Контейнер: MKV
Видео: MPEG4 AVC Video, H264, 16:9, 1280x720, 23.976 fps, 4027 kbps
Аудио: Russian (AC3, 2 ch, 192 kbps, 16 bits, 48.0 KHz) - MVO
Аудио 2: English (AC3, 6 ch, 384 kbps, 16 bits, 48.0 KHz) - оригинал
Формат субтитров: softsub (SRT)

MediaInfo
General
Unique ID : 205721197823166364142171075246992121689 (0x9AC47625682D5629A3483728C1CBDF59)
Complete name : K:\The Sandlot 2 WEB-DL 720p.mkv
Format : Matroska
Format version : Version 4 / Version 2
File size : 3.21 GiB
Duration : 1h 37mn
Overall bit rate : 4 696 Kbps
Encoded date : UTC 2015-08-13 23:02:40
Writing application : mkvmerge v6.1.0 ('Old Devil') built on Mar 2 2013 14:32:37
Writing library : libebml v1.3.0 + libmatroska v1.4.0
Video
ID : 1
Format : AVC
Format/Info : Advanced Video Codec
Format profile : High@L3.1
Format settings, CABAC : No
Format settings, ReFrames : 2 frames
Format settings, GOP : N=1
Codec ID : V_MPEG4/ISO/AVC
Duration : 1h 37mn
Bit rate : 4 027 Kbps
Width : 1 280 pixels
Height : 720 pixels
Display aspect ratio : 16:9
Frame rate mode : Constant
Frame rate : 23.976 fps
Color space : YUV
Chroma subsampling : 4:2:0
Bit depth : 8 bits
Scan type : Progressive
Bits/(Pixel*Frame) : 0.182
Stream size : 2.75 GiB (86%)
Language : English
Default : Yes
Forced : No
Color primaries : BT.709
Transfer characteristics : BT.709
Matrix coefficients : BT.709
Audio #1
ID : 2
Format : AC-3
Format/Info : Audio Coding 3
Mode extension : CM (complete main)
Format settings, Endianness : Big
Codec ID : A_AC3
Duration : 1h 37mn
Bit rate mode : Constant
Bit rate : 192 Kbps
Channel count : 2 channels
Channel positions : Front: L R
Sampling rate : 48.0 KHz
Bit depth : 16 bits
Compression mode : Lossy
Stream size : 134 MiB (4%)
Language : Russian
Default : Yes
Forced : Yes
Audio #2
ID : 3
Format : AC-3
Format/Info : Audio Coding 3
Mode extension : CM (complete main)
Format settings, Endianness : Big
Codec ID : A_AC3
Duration : 1h 37mn
Bit rate mode : Constant
Bit rate : 384 Kbps
Channel count : 6 channels
Channel positions : Front: L C R, Side: L R, LFE
Sampling rate : 48.0 KHz
Bit depth : 16 bits
Compression mode : Lossy
Stream size : 268 MiB (8%)
Language : English
Default : No
Forced : No
Text
ID : 4
Format : UTF-8
Codec ID : S_TEXT/UTF8
Codec ID/Info : UTF-8 Plain Text
Language : English
Default : No
Forced : No
Menu
00:00:00.000 : en:The Beast/Main Titles
00:03:14.000 : en:Tongue-Tied
00:05:50.000 : en:School's Out
00:11:35.000 : en:Women's Lib
00:15:56.000 : en:Pinch Hitter
00:21:43.000 : en:Surrender
00:26:18.000 : en:Name-Calling
00:29:24.000 : en:Carnival
00:33:42.000 : en:Winner Take All
00:36:56.000 : en:The Great Fear
00:39:39.000 : en:Freak of Nature
00:45:23.000 : en:Heat Wave
00:50:15.000 : en:Fourth of July
00:51:58.000 : en:Thrill of a Lifetime
00:57:31.000 : en:America's Future
01:01:11.000 : en:Mission: Impossible
01:04:58.000 : en:The Retriever
01:09:22.000 : en:Tunneling In
01:14:46.000 : en:Chivalry Lives
01:18:26.000 : en:Success!
01:21:14.000 : en:Demon on the Loose
01:25:18.000 : en:Small Town Legend
01:30:00.000 : en:First Love
01:34:44.000 : en:End Titles
Скриншоты
Скачать

Скачать торрент!

Как скачивать? · Что такое торрент? · Рейтинг и ограничения

Сайт не распространяет и не хранит электронные версии произведений, а лишь предоставляет доступ к создаваемому пользователями каталогу ссылок на торрент-файлы, которые содержат только списки хеш-сумм

[Профиль] [ЛС]
Показать сообщения:    
Ответить на тему

Текущее время: Сегодня 16:34

Часовой пояс: GMT + 4



Вы не можете начинать темы
Вы не можете отвечать на сообщения
Вы не можете редактировать свои сообщения
Вы не можете удалять свои сообщения
Вы не можете голосовать в опросах
Вы не можете прикреплять файлы к сообщениям
Вы не можете скачивать файлы