Город-призрак / Ghost Town (Ричард Говернор / Richard Governor) [1988, США, ужасы, вестерн, BDRemux 1080p] 2x AVO (Сербин, Володарский) + original (eng) + sub (eng)

Ответить на тему
 
Автор Сообщение

user ®

Стаж: 7 лет 7 месяцев

Сообщений: 20008

Пост Пост: #1 от 17-Авг-2015 21:18

[Цитировать]

Город-призрак / Ghost Town
Год выпуска: 1988
Страна: США
Жанр: ужасы, вестерн
Продолжительность: 01:24:43
Перевод1: Авторский (одноголосый закадровый)(Ю.Сербин)
Перевод2: Авторский (одноголосый закадровый)(Л.Володарский)
Субтитры: английские
Оригинальная аудиодорожка: английский
Режиссер: Ричард Говернор / Richard Governor
В ролях: Фрэнк Луз, Кэтрин Хиклэнд, Джимми Ф. Скэггз, Пенелопа Виндаст, Брюс Гловер, Зитто Казанн, Блейк Конуэй, Лаура Шефер, Майкл Олдредж, Кен Колб
Описание: Шериф на Диком Западе расследует дело пропавшей дочери полковника, очень влиятельного в городе человека, и находит город призраков, населенный живыми мертвецами, жертвами заклятья. Он попадает в самую гущу событий, связанных со злодеем Девлином, терроризировавшим в 1870 году этот городок, и заместителем шерифа, зверски распятым им на крыльях мельницы…

Качество: BDRemux 1080p
Формат: MKV
Видео кодек: H.264
Аудио кодек: AC3, FLAC
Видео: 1920 x 1080 / MPEG-4 AVC Video / 23459 kbps / 1080p / 23.976 fps / 16:9 / High Profile 4.1
Аудио1: Русский / AC3 / 2.0 / 192 Kbps / 48,0 kHz(Serbin)
Аудио2: Русский / AC3 / 2.0 / 128 Kbps / 48,0 kHz(Volodarskiy)
Аудио3: English / FLAC / 2.0 / 48 kHz / ~572 kbps (Original)
Субтитры: Soft Sub (SRT)
Главы
MediaInfo
Общее
Уникальный идентификатор : 182436500363690416900309781558566035037 (0x893FFDED27F4186183864097D5DB9E5D)
Полное имя : H:\Ghost.Town.1988.BDRemux.1080p.2xRus.Eng.mkv
Формат : Matroska
Версия формата : Version 4 / Version 2
Размер файла : 14,4 Гбайт
Продолжительность : 1 ч. 24 м.
Режим общего битрейта : Переменный
Общий поток : 24,3 Мбит/сек
Дата кодирования : UTC 2015-08-15 08:32:09
Программа кодирования : mkvmerge v7.3.0 ('Nouages') 32bit built on Oct 22 2014 18:44:01
Библиотека кодирования : libebml v1.3.0 + libmatroska v1.4.1
_STATISTICS_WRITING_APP : mkvmerge v7.3.0 ('Nouages') 32bit built on Oct 22 2014 18:44:01
_STATISTICS_WRITING_DATE_UTC : 2015-08-15 08:32:09
_STATISTICS_TAGS : BPS DURATION NUMBER_OF_FRAMES NUMBER_OF_BYTES
DURATION : 01:20:22.400000000
NUMBER_OF_FRAMES : 792
NUMBER_OF_BYTES : 18545
Видео
Идентификатор : 1
Формат : AVC
Формат/Информация : Advanced Video Codec
Профиль формата : High@L4.1
Параметр CABAC формата : Да
Параметр ReFrames формата : 2 кадра
Параметр GOP формата : M=1, N=5
Идентификатор кодека : V_MPEG4/ISO/AVC
Продолжительность : 1 ч. 24 м.
Вид битрейта : Переменный
Максимальный битрейт : 28,1 Мбит/сек
Ширина : 1920 пикселей
Высота : 1080 пикселей
Соотношение сторон : 16:9
Режим частоты кадров : Постоянный
Частота кадров : 23,976 кадра/сек
Цветовое пространство : YUV
Субдискретизация насыщенности : 4:2:0
Битовая глубина : 8 бит
Тип развёртки : Прогрессивная
Заголовок : Ghost Town.1988.BD.BaggerInc
Default : Нет
Forced : Нет
Аудио #1
Идентификатор : 2
Формат : AC-3
Формат/Информация : Audio Coding 3
Расширение режима : CM (complete main)
Параметр Endianness формата : Big
Идентификатор кодека : A_AC3
Продолжительность : 1 ч. 24 м.
Вид битрейта : Постоянный
Битрейт : 192 Кбит/сек
Каналы : 2 канала
Расположение каналов : Front: L R
Частота : 48,0 КГц
Метод сжатия : С потерями
Размер потока : 116 Мбайт (1%)
Заголовок : Serbin AC3 2.0 192 kbps
Язык : Russian
Default : Нет
Forced : Нет
Аудио #2
Идентификатор : 3
Формат : AC-3
Формат/Информация : Audio Coding 3
Расширение режима : CM (complete main)
Параметр Endianness формата : Big
Идентификатор кодека : A_AC3
Продолжительность : 1 ч. 24 м.
Вид битрейта : Постоянный
Битрейт : 128 Кбит/сек
Каналы : 2 канала
Расположение каналов : Front: L R
Частота : 48,0 КГц
Метод сжатия : С потерями
Размер потока : 77,6 Мбайт (1%)
Заголовок : Volodarskiy AC3 2.0 128 kbps
Язык : Russian
Default : Нет
Forced : Нет
Аудио #3
Идентификатор : 4
Формат : FLAC
Формат/Информация : Free Lossless Audio Codec
Идентификатор кодека : A_FLAC
Продолжительность : 1 ч. 24 м.
Вид битрейта : Переменный
Каналы : 2 канала
Частота : 48,0 КГц
Битовая глубина : 16 бит
Заголовок : Original FLAC 2.0 ~572 kbps
Библиотека кодирования : libFLAC 1.2.1 (UTC 2007-09-17)
Язык : English
Default : Нет
Forced : Нет
Текст
Идентификатор : 5
Формат : UTF-8
Идентификатор кодека : S_TEXT/UTF8
Идентификатор кодека/Информация : UTF-8 Plain Text
Язык : English
Default : Нет
Forced : Нет
Меню
00:00:00.000 : en:00:00:00.000
00:09:58.139 : en:00:09:58.139
00:19:48.396 : en:00:19:48.396
00:34:09.005 : en:00:34:09.005
00:50:01.582 : en:00:50:01.582
01:02:34.250 : en:01:02:34.250
01:13:57.266 : en:01:13:57.266
01:21:06.570 : en:01:21:06.570
Сэмпл Скриншоты
Скачать

Скачать торрент!

Как скачивать? · Что такое торрент? · Рейтинг и ограничения

Сайт не распространяет и не хранит электронные версии произведений, а лишь предоставляет доступ к создаваемому пользователями каталогу ссылок на торрент-файлы, которые содержат только списки хеш-сумм

[Профиль] [ЛС]
Показать сообщения:    
Ответить на тему

Текущее время: Сегодня 05:05

Часовой пояс: GMT + 4



Вы не можете начинать темы
Вы не можете отвечать на сообщения
Вы не можете редактировать свои сообщения
Вы не можете удалять свои сообщения
Вы не можете голосовать в опросах
Вы не можете прикреплять файлы к сообщениям
Вы не можете скачивать файлы