Пчёлка Майя / Maya The Bee - Movie (Алекс Стадерманн / Alexs Stadermann) [2014, мультфильм, приключения, комедия, BDRip] Dub (Пифагор)

Ответить на тему
 
Автор Сообщение

user ®

Стаж: 13 лет

Сообщений: 15041

Пост Пост: #1 от 17-Авг-2015 18:12

[Цитировать]

Пчёлка Майя / Maya The Bee - Movie
Страна: Австралия, Германия
Жанр: Мультфильм, приключения, комедия
Продолжительность: 01:27:46
Год выпуска: 2014
Перевод: Профессиональный (дублированный) - Пифагор
Русские субтитры: нет
Режиссёр: Алекс Стадерманн / Alexs Stadermann
Роли озвучивали: Элиза Мартиросова, Даниил Эльдаров, Владимир Антипов, Александр Гаврилин, Александр Головчанский
Описание: Легендарная пчелка доросла до большого экрана. Любопытная Пчелка Майя всегда в поисках приключений и с готовностью перевернет все в улье с ног на голову, чем нередко выводит из себя наставницу госпожу Кассандру. Впрочем, в улье случилось гораздо более глобальное несчастье - похищен королевский нектар, эликсир жизни пчелиной Королевы! Советница монарха Жужжала обвиняет во всем ос и выставляет Майю их сообщницей. Вместе со своим лучшим другом Уилли отважная пчелка вынуждена отправиться в полное опасностей путешествие, чтобы разыскать украденную ценность и спасти жизнь своей Королеве...
Доп. информация: Исходник - Кинозал / Blu-Ray / Мастер5 / 22,02Гб
Семпл: http://multi-up.com/1062689
Качество: BDRip
Формат: AVI
Видео: XviD, 656x352, 23.976fps, 1050kbps
Аудио: MPEG Layer 3, 2ch, 48000Hz, 128kbps
Подробные технические данные
General
Complete name : Pchelka.Maia.2014.D.BDRip.700.MediaClub.CurHaJI.avi
Format : AVI
Format/Info : Audio Video Interleave
File size : 745 MiB
Duration : 1h 27mn
Overall bit rate : 1 187 Kbps
Movie name : Pchelka.Maia.2014.D.BDRip.700.MediaClub.CurHaJI
Writing application : Lavf53.13.0
Writing library : VirtualDub build 35491/release
Video
ID : 0
Format : MPEG-4 Visual
Format profile : Advanced Simple@L5
Format settings, BVOP : 2
Format settings, QPel : No
Format settings, GMC : No warppoints
Format settings, Matrix : Custom
Codec ID : XVID
Codec ID/Hint : XviD
Duration : 1h 27mn
Bit rate : 1 050 Kbps
Width : 656 pixels
Height : 352 pixels
Display aspect ratio : 1.85:1
Frame rate : 23.976 fps
Color space : YUV
Chroma subsampling : 4:2:0
Bit depth : 8 bits
Scan type : Progressive
Compression mode : Lossy
Bits/(Pixel*Frame) : 0.190
Stream size : 659 MiB (88%)
Writing library : XviD 64
Audio
ID : 1
Format : MPEG Audio
Format version : Version 1
Format profile : Layer 3
Codec ID : 55
Codec ID/Hint : MP3
Duration : 1h 27mn
Bit rate mode : Constant
Bit rate : 128 Kbps
Channel(s) : 2 channels
Sampling rate : 48.0 KHz
Compression mode : Lossy
Delay relative to video : 20ms
Stream size : 80.4 MiB (11%)
Alignment : Split accross interleaves
Interleave, duration : 42 ms (1.00 video frame)
Interleave, preload duration : 500 ms[/pre]
Скриншоты
Скачать

Скачать торрент! Пчёлка Майя / Maya The Bee - Movie (Алекс Стадерманн / Alexs Stadermann) [2014, мультфильм, приключения, комедия, BDRip] Dub (Пифагор)

Как скачивать? · Что такое торрент? · Рейтинг и ограничения

Сайт не распространяет и не хранит электронные версии произведений, а лишь предоставляет доступ к создаваемому пользователями каталогу ссылок на торрент-файлы, которые содержат только списки хеш-сумм

[Профиль] [ЛС]
Показать сообщения:    
Ответить на тему

Текущее время: Сегодня 10:28

Часовой пояс: GMT + 4



Вы не можете начинать темы
Вы не можете отвечать на сообщения
Вы не можете редактировать свои сообщения
Вы не можете удалять свои сообщения
Вы не можете голосовать в опросах
Вы не можете прикреплять файлы к сообщениям
Вы не можете скачивать файлы